<?xml version="1.0" standalone="no"?>
<!DOCTYPE svg PUBLIC "-//W3C//DTD SVG 1.1//EN" "http://www.w3.org/Graphics/SVG/1.1/DTD/svg11.dtd" >
<svg>
<metadata>
Created by FontForge 20110222 at Thu Aug 15 22:10:49 2013
 By Orthosie Webhosting
(c) 1997, 2000 Adobe Systems Incorporated. All rights reserved.
</metadata>
<defs>
<font id="ChaparralProRegular" horiz-adv-x="337" >
  <font-face 
    font-family="ChaparralProRegular"
    font-weight="400"
    font-stretch="normal"
    units-per-em="1000"
    panose-1="2 6 5 3 4 5 5 2 2 3"
    ascent="740"
    descent="-260"
    x-height="420"
    cap-height="650"
    bbox="-163 -316 1073 871"
    underline-thickness="54"
    underline-position="-46"
    unicode-range="U+0020-FB04"
  />
<missing-glyph horiz-adv-x="500" 
d="M0 0v701h500v-701h-500zM250 396l170 255h-340zM280 351l170 -256v511zM80 50h340l-170 255zM50 606v-511l170 256z" />
    <glyph glyph-name="T_h" unicode="Th" horiz-adv-x="1015" 
d="M326 600l-2 -550l92 -3q0 -7 -0.5 -23t-0.5 -24q-17 0 -61 0.5t-65 0.5q-20 0 -64 -0.5t-65 -0.5q0 32 1 47l81 3q4 0 4 3v547q-97 0 -130 -3q-22 -2 -25 -19l-16 -97q-9 1 -28 2.5t-28 2.5q2 27 5 82t5 82q7 0 38 -0.5t54 -0.5h170h201q42 1 144 1q0 -130 -3 -279l5 -1
q74 40 103 50t61 10q69 0 111 -71q14 -25 14 -75q0 -81 -2 -237l66 -2q0 -30 -1 -44h-102q-17 0 -51.5 -0.5t-49.5 -0.5v43l59 3q4 2 4 5v182q0 82 -15 105q-19 32 -63 32q-59 0 -137 -55q-2 -158 -2 -268l77 -3q0 -6 -0.5 -21t-0.5 -22h-116q-12 0 -48 -0.5t-50 -0.5
q0 7 0.5 22t0.5 21l58 4q3 0 3 4q1 164 1 527q0 17 -27 20q-52 2 -205 2z" />
    <glyph glyph-name="Tcaron_h" unicode="&#x164;h" horiz-adv-x="1015" 
d="M326 600l-2 -550l92 -3q0 -7 -0.5 -23t-0.5 -24q-17 0 -61 0.5t-65 0.5q-20 0 -64 -0.5t-65 -0.5q0 32 1 47l81 3q4 0 4 3v547q-97 0 -130 -3q-22 -2 -25 -19l-16 -97q-9 1 -28 2.5t-28 2.5q2 27 5 82t5 82q7 0 38 -0.5t54 -0.5h170h201q42 1 144 1q0 -130 -3 -279l5 -1
q74 40 103 50t61 10q69 0 111 -71q14 -25 14 -75q0 -81 -2 -237l66 -2q0 -30 -1 -44h-102q-17 0 -51.5 -0.5t-49.5 -0.5v43l59 3q4 2 4 5v182q0 82 -15 105q-19 32 -63 32q-59 0 -137 -55q-2 -158 -2 -268l77 -3q0 -6 -0.5 -21t-0.5 -22h-116q-12 0 -48 -0.5t-50 -0.5
q0 7 0.5 22t0.5 21l58 4q3 0 3 4q1 164 1 527q0 17 -27 20q-52 2 -205 2zM326 770q78 52 110 73q15 -13 26 -31l-120 -100q-23 0 -34 1q-58 48 -117 97q10 16 25 32q44 -28 110 -72z" />
    <glyph glyph-name="Tcommaaccent_h" unicode="&#x162;h" horiz-adv-x="1015" 
d="M326 600l-2 -550l92 -3q0 -7 -0.5 -23t-0.5 -24q-17 0 -61 0.5t-65 0.5q-20 0 -64 -0.5t-65 -0.5q0 32 1 47l81 3q4 0 4 3v547q-97 0 -130 -3q-22 -2 -25 -19l-16 -97q-9 1 -28 2.5t-28 2.5q2 27 5 82t5 82q7 0 38 -0.5t54 -0.5h170h201q42 1 144 1q0 -130 -3 -279l5 -1
q74 40 103 50t61 10q69 0 111 -71q14 -25 14 -75q0 -81 -2 -237l66 -2q0 -30 -1 -44h-102q-17 0 -51.5 -0.5t-49.5 -0.5v43l59 3q4 2 4 5v182q0 82 -15 105q-19 32 -63 32q-59 0 -137 -55q-2 -158 -2 -268l77 -3q0 -6 -0.5 -21t-0.5 -22h-116q-12 0 -48 -0.5t-50 -0.5
q0 7 0.5 22t0.5 21l58 4q3 0 3 4q1 164 1 527q0 17 -27 20q-52 2 -205 2zM293 -46q23 0 41 -22.5t18 -50.5q0 -90 -92 -143q-4 4 -23 29q55 37 55 81q0 32 -41 41q-4 27 9.5 46t32.5 19z" />
    <glyph glyph-name="f_f_j" unicode="ffj" horiz-adv-x="837" 
d="M40 43l58 4q3 0 3 4v315h-75q0 19 2 49q11 1 34 1t34 1q5 0 5 6q1 64 13.5 105.5t43.5 75.5q68 73 161 73q48 0 84 -15q0 -13 -12 -34t-22 -28q-33 19 -79 19q-50 0 -74 -32q-39 -47 -39 -170h216q5 0 5 7q0 78 13.5 116t44.5 71q68 72 162 72q71 0 125 -26
q0 -13 -13 -35t-24 -29q-78 32 -121 32q-46 0 -72 -31q-15 -18 -22 -32t-12 -50t-5 -95q19 0 63.5 0.5t70.5 0.5q24 0 62 2.5t66 5t31 2.5q2 0 2 -3q0 -49 -0.5 -169t-0.5 -171q0 -67 -8.5 -109.5t-31.5 -87.5q-41 -83 -105 -120q-13 1 -33.5 16.5t-23.5 28.5q70 32 95 76
q33 61 32 175l-1 301q-30 1 -90 1h-128q0 -44 -0.5 -155t-0.5 -164l89 -3v-43h-126q-15 0 -49.5 -0.5t-50.5 -0.5q0 8 0.5 22t0.5 21l58 4q4 0 4 4q0 213 -1 315h-221q0 -217 -1 -319l91 -3v-43h-128q-15 0 -49.5 -0.5t-50.5 -0.5q0 8 0.5 22t0.5 21z" />
    <glyph glyph-name="f_j" unicode="fj" horiz-adv-x="542" 
d="M322 683q70 0 124 -26q0 -14 -12.5 -35.5t-24.5 -28.5q-78 32 -121 32q-48 0 -72 -31q-21 -25 -30 -58.5t-8 -118.5q19 0 63.5 0.5t70.5 0.5q24 0 62 2.5t66.5 5t31.5 2.5q2 0 2 -3q-1 -50 -1.5 -170t-0.5 -170q0 -67 -8.5 -109.5t-31.5 -87.5q-43 -85 -106 -120
q-13 1 -33 16.5t-23 28.5q70 32 94 76q33 58 33 175l-2 301q-54 2 -87 2q-92 0 -130 -1q0 -43 -0.5 -154.5t-0.5 -164.5l89 -3q0 -29 -1 -43h-126q-15 0 -49 -0.5t-50 -0.5q-1 15 1 43l57 4q4 0 4 4q0 213 -1 315h-75q0 19 2 49q44 2 68 2q5 0 5 7q0 78 13.5 116t44.5 71
q68 72 163 72z" />
    <glyph glyph-name="f_f" unicode="ff" horiz-adv-x="631" 
d="M320 677q49 0 83 -15q0 -13 -12 -34t-22 -27q-41 18 -80 18q-51 0 -73 -32q-38 -48 -38 -170h215q5 0 5 7q0 78 11.5 116t41.5 72q66 71 152 71q34 0 64 -12q0 -13 -10.5 -35t-20.5 -30q-40 15 -68 15q-40 0 -62 -30q-19 -25 -25 -58t-5 -116q24 0 73 0.5t73 0.5
q0 -28 -3 -52h-42.5h-56.5h-45q0 -216 -1 -319l98 -2q0 -30 -1 -44h-135q-15 0 -49 -0.5t-50 -0.5v43l58 4q4 0 4 4q0 53 -0.5 158.5t-0.5 156.5h-220q0 -216 -1 -319l90 -2v-44h-128q-15 0 -49.5 -0.5t-50.5 -0.5q0 8 0.5 22t0.5 21l58 4q4 0 4 4q0 53 -0.5 158.5
t-0.5 156.5h-75q0 19 2 49q44 2 68 2q5 0 5 6q1 64 13.5 105.5t43.5 75.5q69 73 162 73z" />
    <glyph glyph-name="f_f_i" unicode="ffi" horiz-adv-x="856" 
d="M40 43l58 4q3 0 3 4v315h-75q0 19 2 49q11 1 34 1t34 1q5 0 5 6q1 64 13.5 105.5t43.5 75.5q68 73 161 73q48 0 84 -15q0 -13 -12 -34t-22 -28q-33 19 -79 19q-50 0 -74 -32q-39 -47 -39 -170h216q5 0 5 7q0 78 13.5 116t44.5 71q68 72 161 72q73 0 125 -26
q0 -13 -13 -35t-24 -29q-78 32 -121 32q-45 0 -71 -31q-15 -18 -22 -32t-12 -50t-5 -95q19 0 63 0.5t71 0.5q24 0 62 2.5t66 5t31 2.5q2 0 2 -3q0 -55 -1 -190t-1 -188l70 -3q0 -29 -1 -43h-111q-17 0 -51 -0.5t-50 -0.5v44l65 3q3 0 3 4v314q-28 1 -91 1h-127
q0 -44 -0.5 -155t-0.5 -164l89 -3q0 -29 -1 -43h-125q-15 0 -49.5 -0.5t-50.5 -0.5q0 8 0.5 22t0.5 21l58 4q4 0 4 4q0 213 -1 315h-221q0 -217 -1 -319l91 -3v-43h-128q-15 0 -49.5 -0.5t-50.5 -0.5q0 8 0.5 22t0.5 21z" />
    <glyph glyph-name="f_f_l" unicode="ffl" horiz-adv-x="859" 
d="M616 683q88 0 152 -22q3 -1 3 -6q0 -73 -1.5 -288.5t-2.5 -319.5l78 -2q0 -30 -1 -44h-115q-18 0 -54.5 -0.5t-50.5 -0.5q0 30 1 44l65 3q3 0 3 4q1 97 1 315h-67.5h-86.5h-66q0 -43 -0.5 -154.5t-0.5 -164.5l90 -2q0 -30 -1 -44h-126q-15 0 -49 -0.5t-50 -0.5v43l58 4
q4 0 4 4q0 213 -1 315h-220q-1 -46 -1.5 -157.5t-0.5 -161.5l92 -2q0 -30 -1 -44h-128q-15 0 -49 -0.5t-50 -0.5v43l58 4q4 0 4 4q0 213 -1 315h-75q0 19 2 49q44 2 68 2q5 0 5 6q1 120 57 181q69 73 161 73q52 0 84 -15q0 -12 -12 -33.5t-22 -27.5q-41 18 -80 18
q-48 0 -73 -32q-39 -48 -38 -170h215q5 0 5 8q0 81 11 118t43 71q67 69 164 69zM593 630q-59 0 -89 -37q-18 -24 -24 -57.5t-6 -119.5q34 0 110.5 0.5t109.5 0.5q0 37 0.5 103.5t0.5 95.5q-37 14 -102 14z" />
    <glyph glyph-name="f_i" unicode="fi" horiz-adv-x="561" 
d="M322 683q71 0 125 -26q0 -14 -12.5 -35.5t-24.5 -28.5q-78 32 -122 32q-48 0 -72 -31q-21 -25 -30 -58.5t-8 -118.5q19 0 63.5 0.5t71.5 0.5q24 0 62 2.5t66 5t31 2.5q2 0 2 -3q0 -55 -1 -190t-1 -188l70 -3q0 -29 -1 -43h-111q-17 0 -51.5 -0.5t-50.5 -0.5q0 30 1 44
l65 3q3 0 3 4v314q-52 2 -88 2q-92 0 -131 -1q0 -43 -0.5 -154.5t-0.5 -164.5l89 -3q0 -29 -1 -43h-126q-15 0 -49 -0.5t-50 -0.5q-1 15 1 43l57 4q4 0 4 4q0 213 -1 315h-75q0 19 2 49q44 2 68 2q5 0 5 7q0 78 13.5 116t44.5 71q68 72 163 72z" />
    <glyph glyph-name="f_l" unicode="fl" horiz-adv-x="564" 
d="M176 47l90 -2q0 -30 -1 -44h-126q-15 0 -49 -0.5t-50 -0.5q-1 15 1 43l57 4q4 0 4 4q0 213 -1 315h-75q0 9 0.5 25.5t0.5 24.5q11 0 34.5 0.5t34.5 1.5q5 0 5 7q0 81 11 118t43 70q66 70 161 70q90 0 157 -23q3 -2 3 -6q0 -71 -1.5 -287t-2.5 -320l78 -2q0 -30 -1 -44
h-116q-18 0 -54.5 -0.5t-51.5 -0.5q0 7 0.5 22t0.5 22l66 3q3 0 3 4q1 97 1 315h-67.5h-86.5h-67q0 -44 -0.5 -155t-0.5 -164zM296 629q-58 0 -89 -35q-19 -23 -25 -57t-5 -120q33 0 109.5 0.5t111.5 0.5q0 36 0.5 102.5t0.5 94.5q-40 14 -103 14z" />
    <glyph glyph-name="uni021A_h" unicode="&#x21a;h" horiz-adv-x="1015" 
d="M326 600l-2 -550l92 -3q0 -7 -0.5 -23t-0.5 -24q-17 0 -61 0.5t-65 0.5q-20 0 -64 -0.5t-66 -0.5q0 17 2 47l81 3q4 0 4 3v547q-97 0 -130 -3q-22 -2 -25 -19l-16 -97q-9 1 -28 2.5t-28 2.5q2 27 5 82t5 82q7 0 38 -0.5t54 -0.5h170h201q42 1 144 1q0 -130 -3 -279l5 -1
q74 40 103 50t61 10q69 0 111 -71q14 -25 14 -75q0 -81 -2 -237l66 -2q0 -30 -1 -44h-102q-17 0 -51.5 -0.5t-49.5 -0.5v43l59 3q4 2 4 5v182q0 82 -15 106q-20 31 -63 31q-59 0 -137 -55q-2 -158 -2 -268l77 -3q0 -6 -0.5 -21t-0.5 -22h-116q-12 0 -48 -0.5t-50 -0.5
q0 7 0.5 22t0.5 21l58 4q3 0 3 4q1 164 1 527q0 17 -27 20q-52 2 -205 2zM293 -46q23 0 41 -22.5t18 -50.5q0 -89 -91 -143q-15 17 -23 29q54 37 54 81q0 32 -40 41q-4 27 9 46t32 19z" />
    <glyph glyph-name=".notdef" horiz-adv-x="500" 
d="M0 0v701h500v-701h-500zM250 396l170 255h-340zM280 351l170 -256v511zM80 50h340l-170 255zM50 606v-511l170 256z" />
    <glyph glyph-name=".null" horiz-adv-x="0" 
 />
    <glyph glyph-name="nonmarkingreturn" horiz-adv-x="333" 
 />
    <glyph glyph-name="space" unicode=" " horiz-adv-x="220" 
 />
    <glyph glyph-name="exclam" unicode="!" horiz-adv-x="273" 
d="M184 659v-3q-2 -60 -6 -146t-8.5 -191t-6.5 -149q-14 -4 -52 -7q0 10 -11 227q-4 122 -13 251q15 5 51 11.5t46 6.5zM139 94q24 0 37.5 -16.5t13.5 -36.5t-15 -35t-38 -15q-22 0 -37.5 14.5t-15.5 35.5q0 20 15.5 36.5t39.5 16.5z" />
    <glyph glyph-name="quotedbl" unicode="&#x22;" horiz-adv-x="321" 
d="M131 698q-8 -138 -10 -224q-23 -7 -48 -7q-11 153 -18 217q37 14 76 14zM270 698q-8 -138 -10 -224q-23 -7 -48 -7q-11 152 -18 218q39 13 76 13z" />
    <glyph glyph-name="numbersign" unicode="#" horiz-adv-x="524" 
d="M230 466h109q5 28 10 59.5t11 67.5t9 53q27 2 54 0q-4 -23 -14.5 -84.5t-16.5 -94.5q18 0 52 0.5t48 0.5q0 -26 -3 -49h-107q-4 -23 -11.5 -69t-11.5 -69h108q1 -21 -2 -47h-114q-22 -126 -35 -198q-32 -2 -50 -1q5 30 11 63.5t12.5 73t10.5 61.5h-111q-4 -25 -11.5 -67
t-13 -74.5t-9.5 -56.5q-23 -2 -50 0q20 112 33 198q-16 0 -51 -0.5t-50 -0.5q0 21 2 49h108q8 46 22 138h-109q0 18 2 46q39 1 116 1q8 51 30 180q18 2 54 2q-3 -18 -14.5 -82.5t-17.5 -99.5zM330 419h-109q-14 -78 -23 -138q18 0 55 -0.5t55 -0.5q4 26 22 139z" />
    <glyph glyph-name="dollar" unicode="$" horiz-adv-x="524" 
d="M74 450q0 33 18.5 64.5t48.5 51.5q47 32 112 36q0 18 0.5 52t0.5 50q20 5 51 7q-2 -55 -3 -107q87 1 139 -29q0 -11 -10.5 -31t-21.5 -26q-60 35 -109 39q-2 -143 -4 -203q80 -25 120.5 -59t40.5 -93q0 -76 -54 -122q-50 -41 -126 -48q0 -17 -0.5 -50.5t-0.5 -50.5
q-12 -1 -47 -4q0 17 0.5 51t0.5 52q-44 -2 -96 8.5t-85 29.5q12 39 37 56q77 -46 144 -48q2 66 4 222q-79 27 -119.5 59t-40.5 93zM143 459q0 -37 24 -56t81 -37q2 143 3 191q-48 -4 -74 -26q-34 -25 -34 -72zM390 184q0 42 -25 63t-83 40q-2 -146 -4 -209q50 6 78 29
q34 28 34 77z" />
    <glyph glyph-name="percent" unicode="%" horiz-adv-x="760" 
d="M511 616l-3 3q-60 -2 -219 -4q21 -15 35.5 -47.5t14.5 -72.5q0 -85 -51 -136q-38 -40 -101 -40q-52 0 -87 29q-59 46 -59 137q0 81 53 129q40 37 107 39q65 0 193 3.5t165 7.5q12 -13 22 -30q-51 -90 -176 -318q-30 -55 -188 -342q-31 13 -43 21q78 139 190 346
q14 25 147 275zM192 612q-36 0 -55 -22q-32 -35 -32 -103q0 -74 32 -106q24 -22 54 -22t49 17q35 33 35 112q0 66 -30 103q-15 21 -53 21zM578 323q59 0 92 -33q49 -46 49 -129q0 -82 -49 -131q-40 -40 -101 -40q-55 0 -89 28q-58 43 -58 133q0 84 56 135q42 37 100 37z
M572 283q-34 0 -54 -23q-32 -35 -32 -107q0 -73 31 -102q23 -21 55 -21t52 19q31 31 31 109q0 66 -29 102q-18 23 -54 23z" />
    <glyph glyph-name="ampersand" unicode="&#x26;" horiz-adv-x="712" 
d="M301 360l-1 -5q93 -63 194 -184q23 28 41.5 76.5t21.5 86.5q1 8 -4 8l-58 3q0 31 1 44h104q14 0 44 0.5t44 0.5q2 -22 0 -46l-59 -2q-34 -130 -100 -209q17 -19 63 -75q11 -12 25 -12l76 -2q0 -29 -1 -44q-84 -4 -141 -5q-11 13 -35 43.5t-36 44.5q-98 -93 -229 -93
q-87 0 -142 37q-76 52 -76 137q0 59 37 109.5t106 86.5v4q-84 61 -84 138q0 67 55 113q50 40 123 40q69 0 111 -33q49 -40 49 -99q0 -104 -129 -163zM165 509q0 -39 22 -65.5t69 -57.5q104 50 104 127q0 43 -27 71q-26 26 -69 26t-70 -27q-29 -29 -29 -74zM272 41
q99 0 176 79q-115 137 -227 211q-43 -21 -75.5 -60.5t-32.5 -93.5q0 -63 47 -102q43 -34 112 -34z" />
    <glyph glyph-name="quotesingle" unicode="'" horiz-adv-x="181" 
d="M131 698q-10 -166 -11 -224q-23 -7 -48 -7q-11 153 -18 217q38 14 77 14z" />
    <glyph glyph-name="parenleft" unicode="(" horiz-adv-x="328" 
d="M70 280q0 142 67 259t158 173q12 -15 24 -35q-71 -53 -124 -157t-53 -237q0 -240 175 -398q-14 -17 -30 -32q-43 35 -75 68t-67.5 85t-55 122t-19.5 152z" />
    <glyph glyph-name="parenright" unicode=")" horiz-adv-x="328" 
d="M257 286q0 -262 -221 -432q-5 6 -28 33q177 150 177 396q0 134 -51.5 236t-122.5 159q16 22 24 32q91 -54 156.5 -168.5t65.5 -255.5z" />
    <glyph glyph-name="asterisk" unicode="*" horiz-adv-x="357" 
d="M196 510q2 -42 4 -128q-22 -2 -46 0q4 87 5 128q-20 -15 -103 -74q-14 19 -25 39q14 8 53 31t60 35q-76 44 -113 66q7 13 23 39q57 -38 106 -73l-6 126q4 0 12 0.5t12 0.5t12 -0.5t11 -0.5q-1 -21 -2.5 -63t-2.5 -63q46 33 106 74q0 -1 9.5 -16t13.5 -23
q-97 -58 -112 -67q97 -58 112 -67q-15 -26 -26 -38q-68 50 -103 74z" />
    <glyph glyph-name="plus" unicode="+" horiz-adv-x="524" 
d="M460 208h-170q-1 -70 -1 -196q-25 -3 -55 -3v199h-170q0 36 1 53q110 0 169 1v186q29 3 57 3q0 -25 -0.5 -88.5t-0.5 -99.5q118 0 172 1q2 -26 -2 -56z" />
    <glyph glyph-name="comma" unicode="," horiz-adv-x="245" 
d="M111 100q28 0 50 -25.5t22 -58.5q0 -52 -31.5 -94.5t-80.5 -70.5q-16 17 -29 35q68 42 68 93q0 33 -50 47q-4 31 11.5 52.5t39.5 21.5z" />
    <glyph glyph-name="hyphen" unicode="-" horiz-adv-x="315" 
d="M131 213h-99q0 36 1 52q35 1 102 1q26 0 74.5 0.5t73.5 1.5q0 -21 -2 -55h-150z" />
    <glyph glyph-name="period" unicode="." horiz-adv-x="245" 
d="M125 102q27 0 40 -17.5t13 -37.5q0 -23 -14.5 -39.5t-38.5 -16.5q-25 0 -41 15.5t-16 39.5q0 21 15 38.5t42 17.5z" />
    <glyph glyph-name="slash" unicode="/" horiz-adv-x="392" 
d="M60 -55q-32 8 -49 14q87 199 172 398q16 38 68 160t77 179q24 -4 55 -16q-78 -176 -151 -344q-92 -213 -172 -391z" />
    <glyph glyph-name="zero" unicode="0" horiz-adv-x="524" 
d="M479 331q0 -196 -90 -289q-51 -52 -134 -52q-76 0 -127 49q-82 82 -82 263q0 206 93 299q56 54 135 54t130 -54q33 -36 54 -105.5t21 -164.5zM265 609q-47 0 -80 -40q-26 -31 -42 -100t-16 -162q0 -158 46 -224q35 -48 90 -48q46 0 78 38q57 67 57 242q0 183 -46 248
q-33 46 -87 46z" />
    <glyph glyph-name="one" unicode="1" horiz-adv-x="524" 
d="M312 48l156 -3q0 -30 -1 -44h-195q-32 0 -99.5 -0.5t-104.5 -0.5q0 31 1 45l163 3q4 0 4 5q1 167 1 504q-29 -8 -86 -24t-87 -24q-1 4 -5 19.5t-5 23.5q51 19 115 45.5t102.5 43t40.5 16.5q3 0 3 -4q0 -5 -3 -605z" />
    <glyph glyph-name="two" unicode="2" horiz-adv-x="524" 
d="M456 472q0 -134 -183 -305q-40 -40 -118 -106l1 -4q180 0 312 3h3q0 -23 -4 -61q-15 0 -119.5 0.5t-147.5 0.5h-143q-7 18 -14 41q113 93 175 154q155 150 155 268q0 69 -36 106q-33 36 -98 36q-63 0 -99 -31q-4 -4 -5 -12l-21 -97q-8 1 -26 3l-27 3q2 19 6 68t6 75
q74 41 174 41q94 0 147 -42q62 -52 62 -141z" />
    <glyph glyph-name="three" unicode="3" horiz-adv-x="524" 
d="M135 570l-18 -95q-4 1 -23.5 2.5t-29.5 3.5q7 98 10 137q74 37 174 37q93 0 145 -39q24 -18 39.5 -47.5t15.5 -58.5q0 -60 -38.5 -102t-97.5 -59v-6q73 -11 113.5 -54.5t40.5 -101.5q0 -87 -79 -148q-65 -49 -192 -49q-82 0 -131 15q-11 63 -21 140q28 7 53 11l25 -91
q1 -5 8 -11q31 -14 83 -14q79 0 124 36q47 40 47 104q0 59 -47.5 94t-118.5 35h-70q-2 33 -1 51q107 -2 164 36.5t57 100.5q0 50 -31 78q-32 31 -101 31q-57 0 -94 -25q-5 -5 -6 -11z" />
    <glyph glyph-name="four" unicode="4" horiz-adv-x="524" 
d="M388 46l78 -2q1 -15 -1 -43h-117q-25 0 -72 -0.5t-67 -0.5q0 29 1 43l103 3q5 0 5 4v122q-31 -1 -273 -1q-16 31 -25 58q45 66 141 198q121 167 165 222q45 0 66 -2q-1 -79 -2 -233t-1 -189q84 0 109 1q0 -36 -2 -53h-107q-1 -42 -1 -127zM319 555h-5
q-17 -24 -53.5 -76.5t-63.5 -90.5q-15 -21 -104 -155q-4 -7 2 -7q49 -1 222 -1z" />
    <glyph glyph-name="five" unicode="5" horiz-adv-x="524" 
d="M462 220q0 -113 -82 -175q-74 -55 -194 -55q-69 0 -118 13q-14 81 -22 138q14 4 53 11l24 -90q2 -6 9 -11q27 -12 68 -12q84 0 134 42t50 116q0 76 -50 117.5t-145 41.5q-51 0 -102 -9l-7 8q8 74 36 290h164q116 0 171 1q0 -30 -5 -62q-90 1 -274 1q-3 -19 -12.5 -80.5
t-14.5 -93.5q38 5 83 5q115 0 174.5 -57.5t59.5 -138.5z" />
    <glyph glyph-name="six" unicode="6" horiz-adv-x="524" 
d="M127 326h5q76 70 164 70q77 0 121 -44q26 -25 43.5 -64t17.5 -82q0 -109 -82 -175q-51 -41 -132 -41q-84 0 -136 52q-78 78 -78 229q0 186 87 293q74 91 198 91q59 0 94 -15q9 -60 15 -129l-21 -4q-21 -4 -32 -6l-19 84q-2 8 -5 10q-20 11 -54 11q-39 0 -72 -20.5
t-53 -51.5q-50 -79 -61 -208zM275 35q52 0 85 36q40 44 40 119t-38 115q-32 36 -87 36q-37 0 -78 -22t-65 -62q-2 -114 46 -175q34 -47 97 -47z" />
    <glyph glyph-name="seven" unicode="7" horiz-adv-x="524" 
d="M420 578l-3 5q-241 2 -266 -1q-21 -1 -28 -22l-21 -78q-29 3 -53 9q4 25 12 77t12 77q4 0 35.5 -0.5t51.5 -0.5h318q11 -23 20 -56q-73 -122 -132.5 -250.5t-87.5 -217.5q-14 -42 -16 -119q-32 -3 -79 -3q0 74 20 128q44 121 217 452z" />
    <glyph glyph-name="eight" unicode="8" horiz-adv-x="524" 
d="M346 348v-4q69 -25 104.5 -68.5t35.5 -98.5q0 -92 -79 -146q-60 -41 -155 -41q-90 0 -148 39q-66 46 -66 130q0 114 140 181v5q-105 50 -105 145q0 36 18.5 68t44.5 53q58 44 144 44q84 0 132 -42t48 -103q0 -103 -114 -162zM147 499q0 -49 31 -77t112 -55q97 48 97 133
q0 48 -27 76q-33 33 -86 33q-57 0 -92 -30q-35 -32 -35 -80zM409 164q0 59 -39.5 91.5t-138.5 63.5q-51 -22 -83 -62.5t-32 -92.5q0 -59 40 -93q40 -35 102 -35q63 0 103 28q48 36 48 100z" />
    <glyph glyph-name="nine" unicode="9" horiz-adv-x="524" 
d="M397 316h-5q-74 -62 -158 -62q-76 0 -127 47q-59 55 -59 138q0 105 80 171q56 45 136 45q86 0 137 -54q74 -81 74 -237q0 -187 -84 -288q-71 -86 -198 -86q-52 0 -98 10q-16 84 -23 126q28 8 52 11l24 -80q4 -7 9 -11q20 -10 57 -10q40 0 73.5 19.5t52.5 47.5
q53 80 57 213zM255 610q-51 0 -85 -35q-43 -42 -43 -124q0 -69 34 -109q34 -37 92 -37q39 0 77 20t63 54q1 56 -12 106.5t-31 76.5q-36 48 -95 48z" />
    <glyph glyph-name="colon" unicode=":" horiz-adv-x="245" 
d="M126 418q26 0 39.5 -17.5t13.5 -38.5q0 -22 -15 -38.5t-39 -16.5q-25 0 -41 15.5t-16 38.5q0 22 15.5 39.5t42.5 17.5zM126 102q26 0 39 -18t13 -38q0 -22 -15 -38.5t-39 -16.5q-25 0 -40.5 15.5t-15.5 38.5q0 22 15 39.5t43 17.5z" />
    <glyph glyph-name="semicolon" unicode=";" horiz-adv-x="245" 
d="M126 418q26 0 39 -17.5t13 -38.5q0 -22 -15 -38.5t-39 -16.5q-25 0 -40.5 15.5t-15.5 38.5q0 22 15.5 39.5t42.5 17.5zM112 99q27 0 49 -25.5t22 -58.5q0 -52 -31.5 -94.5t-80.5 -70.5q-12 13 -29 34q68 43 68 93q0 34 -50 48q-4 31 11.5 52.5t40.5 21.5z" />
    <glyph glyph-name="less" unicode="&#x3c;" horiz-adv-x="524" 
d="M173 238q49 -42 233 -194q-15 -24 -31 -41q-50 39 -140 108.5t-131 101.5q-1 15 -1 47q122 90 273 201q18 -20 30 -42q-170 -131 -233 -181z" />
    <glyph glyph-name="equal" unicode="=" horiz-adv-x="524" 
d="M63 283q0 19 2 53q20 0 398 3q2 -26 -2 -56h-398zM62 132q0 32 3 56h398q0 -17 -2 -53q-21 0 -399 -3z" />
    <glyph glyph-name="greater" unicode="&#x3e;" horiz-adv-x="524" 
d="M332 235q-127 104 -234 189q14 24 30 41q114 -85 273 -205v-47q-248 -188 -273 -206q-12 14 -31 41q117 91 235 187z" />
    <glyph glyph-name="question" unicode="?" horiz-adv-x="426" 
d="M385 504q0 -59 -38.5 -109.5t-116.5 -104.5q-27 -20 -27 -35q0 -22 20 -80q-20 -11 -51 -17q-14 18 -30 59t-16 66q95 67 133.5 111.5t38.5 104.5q0 49 -28.5 79t-78.5 30q-45 0 -73 -21q-3 -3 -6 -12l-18 -86q-38 4 -56 7q2 23 6 68.5t6 63.5q64 32 155 32
q88 0 134 -46.5t46 -109.5zM197 93q23 0 37.5 -17t14.5 -37q0 -18 -15.5 -33t-36.5 -15q-23 0 -39 14t-16 35q0 20 15 36.5t40 16.5z" />
    <glyph glyph-name="at" unicode="@" horiz-adv-x="623" 
d="M394 343h4l17 29q11 -1 45 -10q-19 -70 -54 -218q-1 -3 2 -5t6 -2q40 0 70 30q46 44 46 117q0 78 -50 132.5t-145 54.5q-98 0 -169 -77.5t-71 -198.5q0 -100 57.5 -150t137.5 -50q71 0 123 35q12 -15 17 -32q-63 -39 -156 -39q-94 0 -161.5 61t-67.5 172q0 139 89 226.5
t214 87.5q101 0 165.5 -59.5t64.5 -151.5q0 -98 -64 -154q-53 -43 -136 -43q-6 0 -16.5 5.5t-15.5 12.5q2 18 11 50l-6 2q-71 -69 -120 -69q-12 0 -33 12t-28 26q-2 5 -2 20q0 37 15 85q16 49 53 89t84 40q44 0 74 -28zM232 168q0 -22 22 -22q21 0 61.5 32.5t51.5 57.5
q5 15 18 67q-20 28 -61 28q-24 0 -44 -22t-32 -56q-16 -45 -16 -85z" />
    <glyph glyph-name="A" unicode="A" horiz-adv-x="606" 
d="M-13 46l56 3q4 2 5 5q34 87 231 605q12 1 55 1q39 -105 121.5 -336t97.5 -274l61 -3q0 -32 -1 -46h-94q-24 0 -68.5 -0.5t-63.5 -0.5q0 8 0.5 23t0.5 23l78 3q4 0 2 5q-40 116 -51 144q-1 5 -7 5l-239 -1q-43 -122 -53 -152l90 -3q0 -31 -1 -46h-133q-15 0 -45 -0.5
t-43 -0.5q0 31 1 46zM299 548h-4q-18 -48 -54.5 -149t-51.5 -143q-3 -6 2 -6h210q-25 75 -102 298z" />
    <glyph glyph-name="B" unicode="B" horiz-adv-x="574" 
d="M48 46l70 2q5 0 5 5v548l-75 3q0 8 0.5 23t0.5 22q88 2 175 2q133 0 192 -26q34 -17 56 -50.5t22 -71.5q0 -53 -33.5 -93t-85.5 -58v-6q68 -8 114 -53t46 -105q0 -84 -68 -136.5t-181 -52.5q-13 0 -63 0.5t-59 0.5h-117q0 31 1 46zM202 603l-1 -241q12 -2 48 -2
q69 0 118 35t49 91q0 54 -39.5 87t-116.5 33q-34 0 -58 -3zM201 313l-1 -231q-1 -22 17 -29.5t68 -7.5q68 0 117.5 33.5t49.5 101.5q0 54 -46 94.5t-145 40.5q-53 0 -60 -2z" />
    <glyph glyph-name="C" unicode="C" horiz-adv-x="585" 
d="M50 289q0 188 132 295q92 76 227 76q81 0 127 -21q4 -53 10 -169q-14 -2 -57 -7l-16 108q-1 11 -8 15q-28 18 -83 18q-95 0 -158 -64q-89 -91 -89 -228q0 -67 13.5 -112t48.5 -84q27 -31 72 -49.5t95 -18.5q83 0 177 42q9 -30 12 -51q-119 -49 -203 -49q-116 0 -193 60
q-49 39 -78 101.5t-29 137.5z" />
    <glyph glyph-name="D" unicode="D" horiz-adv-x="691" 
d="M49 45l70 3q4 0 4 4v548l-74 3q0 32 1 46q108 2 204 2q88 0 144 -12.5t104 -39.5q63 -37 101 -105t38 -149q0 -88 -32 -162t-93 -119q-88 -64 -233 -64h-119q-16 0 -56 -0.5t-60 -0.5q0 8 0.5 23.5t0.5 22.5zM203 602l-2 -521q0 -21 14 -28.5t63 -7.5q130 0 200 64
q36 33 57.5 88.5t21.5 117.5q0 83 -21 134.5t-69 94.5q-72 62 -203 62q-48 0 -61 -4z" />
    <glyph glyph-name="E" unicode="E" horiz-adv-x="555" 
d="M51 46l69 3q3 0 3 3v549l-73 2q0 32 1 47q17 0 56 -0.5t59 -0.5q15 0 112.5 0.5t108.5 0.5h87q9 -139 9 -151q-6 -1 -24.5 -3.5t-28.5 -3.5l-16 87q-3 16 -23 18q-65 5 -159 5q-5 0 -16 -0.5t-13 -0.5l-1 -246q28 0 78.5 0.5t77.5 1.5q13 1 17.5 5.5t6.5 14.5l5 48
q35 0 51 -1q-2 -60 -2 -95v-92q-33 -2 -52 -1l-3 52q-1 19 -24 19q-46 1 -155 1l-1 -240q0 -13 8.5 -16.5t47.5 -3.5q125 0 155 7q12 3 18 20l32 91q11 -2 29.5 -5.5t22.5 -4.5q-14 -64 -35 -157q-12 0 -122 0.5t-189 0.5q-22 0 -61.5 -0.5t-56.5 -0.5q0 32 1 47z" />
    <glyph glyph-name="F" unicode="F" horiz-adv-x="531" 
d="M123 601l-73 2q0 32 1 47q16 0 55 -0.5t59 -0.5q15 0 113 0.5t109 0.5q23 0 51 0.5t38 0.5q8 -105 10 -160q-8 -1 -53 -6l-19 95q-3 16 -22 17q-45 5 -168 5q-5 0 -12 -0.5t-9 -0.5l-1 -260q59 0 157 2q23 0 24 19l7 50h16.5h19h15.5q-2 -66 -2 -101q0 -15 -0.5 -46
t-0.5 -45q-16 -1 -51 -1l-4 54q-1 18 -26 18q-60 1 -155 3l-1 -244l117 -3q0 -31 -1 -47q-20 0 -72 0.5t-77 0.5q-21 0 -61 -0.5t-57 -0.5q0 8 0.5 23t0.5 23l68 3q4 2 4 5v547z" />
    <glyph glyph-name="G" unicode="G" horiz-adv-x="665" 
d="M514 461l-14 100q-2 14 -8 19q-35 27 -103 27q-98 0 -164 -63q-87 -85 -87 -223t70 -209q72 -74 188 -74q24 0 46 4t34 9.5t12 10.5v170l-107 2q0 33 1 48h144h97q0 -33 -1 -48l-51 -2q-4 0 -4 -4l-2 -205q-56 -33 -178 -33q-144 0 -227 68q-110 94 -110 251
q0 91 39 165.5t106 122.5q89 63 217 63q94 0 151 -27q6 -107 7 -166q-9 -1 -28 -3t-28 -3z" />
    <glyph glyph-name="H" unicode="H" horiz-adv-x="731" 
d="M54 47l65 3q4 0 4 4v547l-71 3q0 31 1 46q17 0 56 -0.5t58 -0.5q20 0 62 0.5t60 0.5q0 -32 -1 -47l-82 -2q-3 0 -3 -4v-230q0 -4 4 -4h322v238l-85 2q0 32 1 46h125q19 0 55.5 0.5t51.5 0.5q1 -17 -1 -46l-64 -3q-2 0 -2 -4l-3 -547l74 -3q0 -31 -1 -47q-16 0 -55 0.5
t-59 0.5t-62 -0.5t-59 -0.5q0 8 0.5 24t0.5 23l79 3q4 0 4 4v256q0 4 -4 4l-323 -2l-1 -262l89 -3q0 -32 -1 -47q-17 0 -60 0.5t-64 0.5q-19 0 -57 -0.5t-55 -0.5q0 31 1 47z" />
    <glyph glyph-name="I" unicode="I" horiz-adv-x="324" 
d="M123 601l-79 3q0 7 0.5 22.5t0.5 23.5q17 0 60 -0.5t64 -0.5q20 0 60 0.5t57 0.5q0 -8 -0.5 -23.5t-0.5 -22.5l-79 -3q-3 0 -3 -4l-2 -547l85 -3q0 -32 -1 -47q-16 0 -57 0.5t-62 0.5q-20 0 -61 -0.5t-59 -0.5q0 31 1 47l72 3q4 0 4 4v547z" />
    <glyph glyph-name="J" unicode="J" horiz-adv-x="493" 
d="M462 605l-71 -3q-3 0 -3 -3v-109v-129v-110q0 -69 -11 -111.5t-39 -80.5q-59 -79 -185 -79q-60 0 -112 12q-2 21 -16 154q22 5 52 9l20 -99q2 -9 8 -12q23 -12 65 -12q78 0 112 55q18 29 22.5 63t4.5 98q0 120 -2 354l-125 3q0 31 1 45q25 0 84 -0.5t86 -0.5q19 0 57 0.5
t53 0.5q0 -30 -1 -45z" />
    <glyph glyph-name="K" unicode="K" horiz-adv-x="631" 
d="M123 600l-71 3q0 32 1 47q16 0 56 -0.5t60 -0.5q18 0 55.5 0.5t53.5 0.5q0 -32 -1 -47l-70 -2q-3 -1 -3 -6l-2 -240q41 0 69 7q66 63 197 234q3 3 -2 3l-67 4q0 31 1 46h130q14 0 41 0.5t38 0.5q0 -32 -1 -47l-53 -3q-96 -111 -220 -247v-5q56 -42 116 -137
q62 -97 89 -136q16 -23 33 -23l72 -4q0 -16 -2 -46q-12 -1 -40 -1.5t-40 -0.5q-11 0 -34.5 -0.5t-32.5 -0.5q-9 10 -108 168q-87 142 -125 142q-47 0 -61 -2l-1 -257l81 -3q1 -16 -1 -47q-15 0 -55.5 0.5t-60.5 0.5q-19 0 -58 -0.5t-55 -0.5v47l67 3q4 0 4 3v547z" />
    <glyph glyph-name="L" unicode="L" horiz-adv-x="523" 
d="M123 600l-73 3q-1 15 1 46h117h127q0 -17 -2 -47l-87 -2q-2 0 -2 -4l-3 -528q0 -14 6.5 -17.5t36.5 -3.5q127 0 159 6q12 3 18 21l36 105q14 -2 53 -12q-11 -54 -39 -168q-13 0 -119.5 0.5t-184.5 0.5q-22 0 -61.5 -0.5t-56.5 -0.5q0 17 2 47l68 3q4 0 4 4v547z" />
    <glyph glyph-name="M" unicode="M" horiz-adv-x="869" 
d="M122 600l-70 2q0 33 1 47h176q29 -71 99 -248t109 -274h5q24 59 98.5 246.5t110.5 275.5q27 0 84 0.5t82 0.5q0 -32 -1 -47l-65 -3q-3 0 -3 -5q0 -195 2 -545l70 -3q0 -32 -1 -47q-15 0 -52 0.5t-56 0.5q-20 0 -59.5 -0.5t-55.5 -0.5q0 8 0.5 23.5t0.5 22.5l77 3q4 1 4 5
q0 25 -3 502h-6q-113 -299 -218 -525q-9 -1 -45 -1q-118 266 -217 530h-6q-6 -462 -6 -510l89 -3q0 -17 -2 -47q-17 0 -59.5 0.5t-63.5 0.5q-17 0 -48.5 -0.5t-45.5 -0.5q0 8 0.5 23.5t0.5 22.5l66 4q4 0 4 4q1 84 2.5 274t1.5 272z" />
    <glyph glyph-name="N" unicode="N" horiz-adv-x="716" 
d="M48 46l64 3q4 0 4 4v549l-73 2q-1 16 1 47q22 0 71.5 -0.5t72.5 -0.5q186 -275 358 -540l5 1q-2 328 -4 491l-94 1q0 8 0.5 24t0.5 23h124q18 0 50.5 0.5t45.5 0.5v-15v-17v-14l-61 -3q-3 0 -3 -4l-3 -594q-24 -11 -53 -11q-165 227 -372 539h-6q0 -322 -1 -483l100 -2
q0 -7 -0.5 -23t-0.5 -23h-132q-17 0 -49.5 -0.5t-45.5 -0.5q0 32 1 46z" />
    <glyph glyph-name="O" unicode="O" horiz-adv-x="718" 
d="M346 -10q-125 0 -207 84q-89 89 -89 246q0 92 39.5 167.5t99.5 116.5q83 56 189 56q97 0 168 -50q55 -39 88.5 -109.5t33.5 -155.5q0 -171 -104 -274q-84 -81 -218 -81zM361 40q95 0 149 62q72 85 72 222q0 145 -71 225q-57 61 -145 61q-84 0 -142 -52q-88 -80 -88 -232
q0 -146 74 -224q58 -62 151 -62z" />
    <glyph glyph-name="P" unicode="P" horiz-adv-x="547" 
d="M123 601l-69 2q0 31 1 46q92 2 164 2q104 0 162 -17q60 -17 94.5 -64t34.5 -103q0 -64 -35.5 -115.5t-88.5 -74.5q-59 -25 -143 -25q-10 0 -24.5 0.5t-17.5 0.5l-1 -203l112 -3q0 -31 -1 -46h-149q-74 0 -108 -1q0 32 1 46l64 4q4 0 4 4v547zM203 601l-2 -291q8 -9 53 -9
q68 0 107 26q68 40 68 127q0 73 -47 112t-128 39q-37 0 -51 -4z" />
    <glyph glyph-name="Q" unicode="Q" horiz-adv-x="718" 
d="M50 317q0 95 40 171.5t106 120.5q78 51 183 51q89 0 155 -41q65 -41 100 -115.5t35 -161.5q0 -85 -28.5 -155.5t-76.5 -115.5q-48 -48 -109 -67v-5q76 -49 148 -80q32 -14 73 -14t87 14q4 -21 6 -48q-83 -29 -134 -29q-35 0 -75 21q-79 42 -185 128q-6 -1 -22 -1
q-131 0 -215 84q-88 89 -88 243zM136 323q0 -147 76 -223q60 -60 151 -60q92 0 147 63q73 83 73 215q0 159 -76 235q-58 57 -140 57q-86 0 -146 -55q-36 -34 -60.5 -94.5t-24.5 -137.5z" />
    <glyph glyph-name="R" unicode="R" horiz-adv-x="600" 
d="M123 601l-69 2q0 31 1 46q112 2 193 2q82 0 137 -15q51 -15 86.5 -57t35.5 -94q0 -63 -37.5 -109.5t-98.5 -70.5v-5q8 -3 15 -7.5t14.5 -12t12.5 -13t12.5 -17.5t12 -18.5t13.5 -23t13 -24t14.5 -29t15.5 -30.5q25 -47 35.5 -60.5t19.5 -13.5l62 -3q0 -15 -2 -47h-66
q-18 -1 -65 -1q-19 25 -66.5 118.5t-60.5 113.5q-18 26 -37.5 36t-55.5 10q-48 0 -58 -2v-226l84 -3q0 -31 -1 -47q-16 0 -57.5 0.5t-62.5 0.5q-20 0 -57 -0.5t-52 -0.5q0 31 1 47l63 3q5 0 5 3v548zM203 600l-2 -274q6 -2 53 -2q86 0 128.5 43t42.5 97q0 69 -44.5 105
t-120.5 36q-47 0 -57 -5z" />
    <glyph glyph-name="S" unicode="S" horiz-adv-x="492" 
d="M98 180l18 -105q2 -8 8 -11q34 -23 93 -23q77 0 114 39q32 33 32 80q0 56 -26 80.5t-98 57.5q-13 6 -20 9q-74 34 -112.5 73t-38.5 100q0 40 18.5 75.5t46.5 57.5q58 47 163 47q81 0 122 -22q8 -78 11 -148q-7 -1 -25.5 -3.5t-29.5 -3.5l-17 94q-3 9 -6 12q-24 20 -75 20
q-60 0 -94 -30q-38 -33 -38 -83q0 -49 26 -71.5t111 -60.5q82 -36 120 -75.5t38 -103.5q0 -87 -58 -139q-62 -56 -180 -56q-89 0 -147 24q-2 27 -6.5 80.5t-6.5 77.5q36 6 57 8z" />
    <glyph glyph-name="T" unicode="T" horiz-adv-x="567" 
d="M161 47l81 3q4 0 4 3v547q-101 0 -130 -4q-22 -1 -25 -19l-16 -96q-22 1 -56 5q2 27 5 82t5 82q7 0 38 -0.5t54 -0.5h170h168q41 1 86 1q4 -51 8 -163q-16 -2 -56 -6l-15 97q-3 17 -25 19q-39 3 -131 3l-2 -550l92 -3q0 -7 -0.5 -23t-0.5 -24q-17 0 -61 0.5t-65 0.5
q-20 0 -64 -0.5t-65 -0.5q0 32 1 47z" />
    <glyph glyph-name="U" unicode="U" horiz-adv-x="669" 
d="M185 600l-2 -329q-1 -70 9 -108t32 -66q40 -53 119 -53q72 0 116 46q49 51 49 176q0 228 -1 330q0 4 -4 4l-83 2q0 32 1 47h116h104q0 -30 -1 -46l-64 -3l-2 -335q-1 -140 -70 -213q-60 -62 -164 -62q-112 0 -171 58q-40 38 -53 88.5t-13 126.5v332q0 6 -5 6l-61 2
q0 32 1 46h108q23 0 66 0.5t62 0.5q0 -32 -1 -47z" />
    <glyph glyph-name="V" unicode="V" horiz-adv-x="624" 
d="M630 604l-56 -4q-17 -43 -53.5 -137t-52.5 -136q-91 -234 -135 -336q-2 0 -22.5 -0.5t-33.5 -0.5q-48 125 -127 347q-31 86 -88 260q-2 4 -6 4l-58 3q0 8 0.5 23t0.5 23h103h150q0 -8 -0.5 -24t-0.5 -23l-98 -3q28 -103 70 -228q80 -246 92 -279h5q37 93 96 258
q64 180 82 244q0 5 -3 5l-88 3q0 32 1 47h130h93q0 -31 -1 -46z" />
    <glyph glyph-name="W" unicode="W" horiz-adv-x="880" 
d="M885 604l-55 -3q-14 -52 -38.5 -141.5t-35.5 -129.5q-52 -195 -99 -340q-11 -1 -58 -1q-77 232 -149 494h-6q-76 -232 -175 -493q-11 -1 -56 -1q-34 127 -87 356q-11 47 -30 134.5t-26 118.5q0 3 -5 3l-58 3q0 31 1 46h100h147q0 -31 -1 -46l-96 -3q16 -107 41 -225
q30 -155 54 -273h6q23 68 85 256.5t87 262.5q8 1 54 1q22 -75 72.5 -256t76.5 -268h6q26 106 63 259q43 188 52 238q0 5 -4 5l-87 2q0 32 1 46q19 0 63.5 0.5t65.5 0.5h92q0 -31 -1 -46z" />
    <glyph glyph-name="X" unicode="X" horiz-adv-x="589" 
d="M-11 46l57 3q3 0 7 4q29 39 96 131.5t103 140.5v7q-106 158 -175 266q-6 3 -8 3l-60 3q0 31 1 45h105q27 0 74 0.5t68 0.5q0 -31 -1 -46l-88 -3q71 -125 136 -218h6q20 28 68.5 105.5t63.5 107.5q3 5 -2 5l-80 3q0 31 1 45h126q17 0 48.5 0.5t44.5 0.5q0 -31 -1 -46
l-57 -3q-115 -167 -182 -259v-6q45 -63 195 -287l63 -3q0 -30 -1 -45h-105q-25 0 -71 -0.5t-66 -0.5q0 32 1 46l78 4q6 0 3 5q-85 141 -148 228h-6q-44 -61 -154 -233l83 -3q0 -32 -1 -46h-129q-16 0 -48 -0.5t-46 -0.5q0 31 1 46z" />
    <glyph glyph-name="Y" unicode="Y" horiz-adv-x="562" 
d="M160 47l79 2q5 1 5 6v196q-20 35 -193 347q-3 3 -5 4l-52 2q0 32 1 47q13 0 47 -0.5t51 -0.5q26 0 73.5 0.5t67.5 0.5q0 -32 -1 -47l-90 -3q55 -109 152 -292h5q100 181 148 288q2 4 -3 4l-81 3q0 31 1 46h124q14 0 44 0.5t42 0.5q0 -31 -1 -46l-51 -4q-31 -53 -100 -174
t-100 -174l-1 -203l92 -3q0 -17 -2 -47q-17 0 -60.5 0.5t-65.5 0.5q-21 0 -64 -0.5t-63 -0.5q0 31 1 47z" />
    <glyph glyph-name="Z" unicode="Z" horiz-adv-x="583" 
d="M128 56l1 -3h66.5h60.5h48.5t44.5 0.5t33 1.5t30.5 3t21.5 4q20 5 27 27l33 102q25 -3 57 -10q-28 -126 -42 -182q-5 0 -54 0.5t-116.5 0.5h-115.5h-176q-9 18 -18 43q48 61 117.5 154t167.5 226.5t124 168.5l-2 5q-39 0 -95.5 0.5t-73.5 0.5q-73 0 -101 -3
q-16 -5 -22 -25l-32 -105q-32 4 -55 9q5 29 15.5 88.5t15.5 88.5q22 0 92 -2h336q13 -29 18 -53q-280 -380 -406 -540z" />
    <glyph glyph-name="bracketleft" unicode="[" horiz-adv-x="323" 
d="M108 -128v829q64 0 186 2q0 -28 -1 -42l-112 -3q-6 0 -6 -8l-3 -733l122 -3q0 -30 -1 -44q-69 0 -185 2z" />
    <glyph glyph-name="backslash" unicode="\" horiz-adv-x="392" 
d="M329 -52q-62 143 -172 397q-63 149 -147 340q1 1 21.5 10.5t32.5 13.5q25 -59 79.5 -189t64.5 -154q28 -64 84 -195.5t86 -199.5q-27 -15 -49 -23z" />
    <glyph glyph-name="bracketright" unicode="]" horiz-adv-x="323" 
d="M217 702l-3 -830q-64 0 -184 -2q-1 14 -1 44l121 3v733q0 8 -7 8l-111 3q-1 14 -1 43q32 0 94.5 -1t91.5 -1z" />
    <glyph glyph-name="asciicircum" unicode="^" horiz-adv-x="524" 
d="M243 631q14 1 45 1q28 -42 89.5 -133.5t94.5 -139.5q-18 -17 -42 -32q-32 44 -87.5 121t-77.5 107q-75 -107 -161 -228q-25 18 -43 32q21 31 86 128.5t96 143.5z" />
    <glyph glyph-name="underscore" unicode="_" horiz-adv-x="500" 
d="M0 -73h500v-54h-500v54z" />
    <glyph glyph-name="grave" unicode="`" horiz-adv-x="333" 
d="M119 640q22 -21 67.5 -68t65.5 -66q-15 -19 -29 -31q-15 12 -45 37t-55.5 46t-46.5 38q18 21 43 44z" />
    <glyph glyph-name="a" unicode="a" horiz-adv-x="454" 
d="M293 35h-5q-88 -45 -146 -45q-40 0 -76.5 29t-36.5 69q0 49 51.5 92t143.5 42h68q3 79 -16.5 114t-66.5 35q-58 0 -120 -67q-21 21 -34 38q86 88 178 88q59 0 96.5 -41t37.5 -121q0 -126 -2 -210q0 -15 9 -15l67 2v-42q-45 -13 -115 -13q-9 8 -33 45zM110 96
q0 -23 19 -38t48 -15q53 0 111 40q3 2 3 9v85q-10 2 -56 2q-63 0 -94 -23t-31 -60z" />
    <glyph glyph-name="b" unicode="b" horiz-adv-x="509" 
d="M150 382l4 -2q67 33 95.5 41.5t59.5 8.5q67 0 113.5 -57.5t46.5 -128.5q0 -72 -24 -129q-27 -61 -81 -96q-44 -29 -114 -29q-62 0 -113 31l-23 -34q-21 2 -46 8q6 76 7 117v519l-73 3q0 29 1 42q18 2 53.5 8.5t63 11.5t30.5 5t3 -3q0 -40 -0.5 -92.5t-1.5 -120t-1 -103.5
zM387 211q0 70 -25 112q-29 48 -81 48q-65 0 -130 -47q0 -38 -0.5 -118t-0.5 -117q0 -18 31.5 -35t69.5 -17q54 0 90 37q46 48 46 137z" />
    <glyph glyph-name="c" unicode="c" horiz-adv-x="403" 
d="M40 185q0 107 68 176t174 69q60 0 92 -21q0 -11 -11.5 -33.5t-20.5 -27.5l-16 7q-17 7 -36.5 12t-37.5 5q-54 0 -86 -37q-45 -51 -45 -131q0 -79 36 -122q31 -38 90 -38q48 0 124 30q6 -19 11 -43q-82 -41 -159 -41t-130 52t-53 143z" />
    <glyph glyph-name="d" unicode="d" horiz-adv-x="521" 
d="M365 35h-6q-58 -29 -84 -37t-55 -8q-73 0 -122 49q-58 56 -58 152q0 100 67 175q56 64 149 64q46 0 99 -20l4 3q0 38 -0.5 109.5t-1.5 108.5l-83 2q0 29 1 43q21 3 59 9t66.5 11t32.5 5q3 0 3 -4q0 -87 -1.5 -309t-1.5 -321q0 -21 11 -21l68 3v-42q-14 -5 -51.5 -11
t-65.5 -6q-16 13 -30 45zM357 97q0 179 -1 255q-47 26 -98 26q-64 0 -99 -48q-36 -48 -36 -130q0 -73 32 -116q31 -41 85 -41q55 0 111 39q6 5 6 15z" />
    <glyph glyph-name="e" unicode="e" horiz-adv-x="445" 
d="M40 192q0 100 59 169t154 69q77 0 118 -51q38 -48 38 -131q-4 -10 -15.5 -22.5t-18.5 -13.5q-88 -3 -254 -3q-2 -83 33 -124q35 -40 103 -40q53 0 133 32q8 -21 11 -45q-86 -42 -159 -42q-95 0 -148.5 56t-53.5 146zM241 383q-47 0 -74 -30q-39 -48 -42 -98q109 0 195 3
q13 0 13 11q0 52 -27 84q-24 30 -65 30z" />
    <glyph glyph-name="f" unicode="f" horiz-adv-x="334" 
d="M177 47l98 -2q0 -30 -1 -44h-135q-15 0 -49.5 -0.5t-50.5 -0.5q0 8 0.5 22t0.5 21l58 4q3 0 3 4v315h-75q0 34 1 49q46 2 69 2q5 0 5 7q0 78 11.5 116t41.5 72q66 71 152 71q35 0 65 -12q0 -13 -11 -35t-21 -30q-40 15 -68 15q-42 0 -62 -29q-19 -25 -25 -58t-5 -117
q98 0 144 1q0 -21 -2 -53h-42h-56h-45q0 -216 -1 -318z" />
    <glyph glyph-name="g" unicode="g" horiz-adv-x="466" 
d="M138 115v5q-93 44 -93 142q0 69 52.5 118.5t139.5 49.5q42 0 69 -9q8 -2 21 -2q15 1 43.5 2t51 2t36.5 2q2 -25 0 -51h-95v-4q35 -33 35 -94q0 -68 -45 -114q-57 -60 -165 -55q-49 -39 -49 -52q0 -18 25.5 -24t105.5 -9q113 -5 145 -26q25 -16 35.5 -33t10.5 -46
q0 -42 -26.5 -77.5t-76.5 -56.5q-65 -28 -153 -28q-91 0 -141 29.5t-50 85.5q0 27 22 45q19 15 45 34t38 29v5q-59 18 -59 69q0 6 11 15t67 48zM124 265q0 -60 27 -88t69 -28q44 0 72 32.5t28 91.5q0 54 -23 83q-24 31 -70 31q-47 0 -75 -32t-28 -90zM386 -99
q0 33 -22.5 44.5t-89.5 16.5q-27 2 -104 6q-56 -49 -67 -66q-11 -16 -11 -32q0 -35 38 -53t86 -18q70 0 115 23q55 30 55 79z" />
    <glyph glyph-name="h" unicode="h" horiz-adv-x="545" 
d="M164 371l4 -1q74 40 103 50t61 10q69 0 111 -71q14 -25 14 -75q0 -81 -2 -237l66 -2q0 -30 -1 -44h-102q-17 0 -51.5 -0.5t-49.5 -0.5v43l59 4q4 0 4 4v182q0 82 -15 105q-19 32 -63 32q-59 0 -137 -55q-2 -158 -2 -268l77 -2q0 -7 -0.5 -22t-0.5 -22h-115
q-14 0 -48 -0.5t-49 -0.5q0 30 1 44l57 3q3 0 3 4q1 175 1 583l-76 1q-1 16 1 42q16 2 52.5 8t65.5 11t32 5t3 -4q0 -42 -0.5 -96t-1.5 -123.5t-1 -106.5z" />
    <glyph glyph-name="i" unicode="i" horiz-adv-x="266" 
d="M136 632q25 0 37.5 -16t12.5 -36q0 -23 -15 -38.5t-38 -15.5t-38.5 15.5t-15.5 37.5t15 37.5t42 15.5zM102 361l-77 2v42q18 2 55 8.5t65.5 11.5t31.5 5q2 0 2 -3q0 -55 -1 -191t-1 -189l70 -3q0 -29 -1 -43h-111q-17 0 -52.5 -0.5t-51.5 -0.5v44l67 3q4 0 4 4v310z" />
    <glyph glyph-name="j" unicode="j" horiz-adv-x="244" 
d="M122 632q26 0 38.5 -16.5t12.5 -37.5q0 -22 -14.5 -37.5t-37.5 -15.5t-38.5 16t-15.5 37t14.5 37.5t40.5 16.5zM95 359l-81 1q0 29 1 43q16 2 54.5 9t68.5 12.5t33 5.5q2 0 2 -3q0 -50 -0.5 -171t-0.5 -172q0 -67 -8.5 -109.5t-31.5 -86.5q-39 -83 -105 -120
q-13 1 -33.5 16.5t-23.5 28.5q71 33 95 76q32 57 32 175z" />
    <glyph glyph-name="k" unicode="k" horiz-adv-x="499" 
d="M88 633l-76 1q0 29 1 42q16 2 53 8.5t66 11.5t32 5t3 -4q0 -35 -3 -443q46 0 63 3q60 56 107 110q1 4 -2 5l-47 2q0 32 1 45h100q14 0 41.5 0.5t39.5 0.5q2 -23 0 -45l-47 -3q-85 -82 -135 -127v-5q39 -32 84 -104q39 -64 53 -79q9 -9 18 -9l60 -2q0 -30 -1 -45
q-37 -1 -133 -1q-23 31 -67 110q-48 83 -83 100q-28 0 -52 -2q0 -24 -0.5 -81t-0.5 -80l63 -3q0 -29 -1 -43h-102q-17 0 -51.5 -0.5t-49.5 -0.5q0 30 1 44l62 3q2 0 2 4q1 175 1 582z" />
    <glyph glyph-name="l" unicode="l" horiz-adv-x="256" 
d="M90 633l-80 2q0 7 0.5 21.5t0.5 21.5q19 2 56 7.5t66.5 10.5t32.5 5t3 -4q0 -76 -1.5 -308.5t-2.5 -341.5l78 -3q0 -29 -1 -43h-116q-18 0 -55 -0.5t-53 -0.5q0 30 1 44l67 3q3 0 3 4q2 380 1 582z" />
    <glyph glyph-name="m" unicode="m" horiz-adv-x="812" 
d="M101 360l-76 3q0 28 1 41q17 2 50.5 8.5t59 11.5t28.5 5t3 -3q1 -7 4 -25.5t4 -28.5l4 -1q66 39 93.5 49t56.5 10q63 0 107 -67h3q68 43 97.5 54.5t62.5 11.5q63 0 105 -65q22 -36 22 -76q0 -37 -1.5 -119.5t-1.5 -121.5l64 -2q0 -7 -0.5 -22t-0.5 -22h-104
q-17 0 -49 -0.5t-45 -0.5q0 30 1 43l56 4q3 0 3 4q1 66 1 198q0 59 -11 82q-19 39 -68 39t-119 -52q1 -43 0 -143t-1 -128l68 -3q0 -29 -1 -43h-111q-16 0 -47.5 -0.5t-43.5 -0.5q0 30 1 44l56 3q4 0 4 4v205q0 61 -12 82q-19 34 -63 34q-24 0 -58.5 -15t-63.5 -38
q-3 -127 -3 -272l71 -3q0 -29 -1 -43h-110q-16 0 -50 -0.5t-48 -0.5q0 30 1 44l59 3q3 0 3 4v309z" />
    <glyph glyph-name="n" unicode="n" horiz-adv-x="558" 
d="M101 360l-77 2q0 6 0.5 20t0.5 21q17 3 50.5 9.5t59 11.5t28.5 5q2 0 2 -3q5 -29 11 -59l5 -1q70 42 99.5 53t64.5 11q68 0 106 -68q20 -32 20 -73q0 -17 -3 -242l64 -3q0 -29 -1 -43q-16 0 -51.5 -0.5t-53.5 -0.5q-16 0 -49 -0.5t-47 -0.5q0 30 1 44l58 3q3 2 3 4
q1 54 1 181q0 78 -13 101q-21 38 -68 38q-27 0 -64.5 -17t-68.5 -42q-2 -150 -2 -264l72 -3q0 -7 -0.5 -22t-0.5 -22q-16 0 -54.5 0.5t-58.5 0.5q-16 0 -49 -0.5t-48 -0.5q0 29 1 44l59 3q4 0 4 3z" />
    <glyph glyph-name="o" unicode="o" horiz-adv-x="505" 
d="M244 -10q-85 0 -137 47q-66 61 -66 165q0 113 84 183q57 45 137 45q75 0 124 -37q78 -59 78 -173q0 -120 -86 -188q-53 -42 -134 -42zM252 34q51 0 83 33q45 49 45 149q0 88 -40 132q-34 38 -85 38t-84 -34q-46 -47 -46 -143q0 -95 47 -142q30 -33 80 -33z" />
    <glyph glyph-name="p" unicode="p" horiz-adv-x="522" 
d="M159 376l5 -1q73 37 98.5 46t57.5 9q72 0 117 -60t44 -131q0 -69 -24 -123q-29 -63 -79 -97q-43 -29 -111 -29q-56 0 -102 23l-4 -2v-191l93 -2q0 -29 -1 -43q-86 0 -130 -1q-70 0 -100 -1q0 29 1 43l58 4q4 0 4 5v535l-76 1q0 28 1 41q16 3 49.5 10t59.5 12.5t28 5.5
q3 0 3 -3q5 -26 8 -51zM399 215q0 61 -21 103q-29 52 -87 52q-60 0 -127 -47q0 -39 -0.5 -119t-0.5 -115q0 -17 32.5 -34t68.5 -17q53 0 87 35q48 48 48 142z" />
    <glyph glyph-name="q" unicode="q" horiz-adv-x="507" 
d="M359 34h-7q-53 -28 -76.5 -35.5t-50.5 -7.5q-76 0 -125 49q-59 57 -59 153q0 98 65 171q56 65 154 65q47 0 109 -22l27 28q25 -2 43 -7q-4 -48 -4 -92q0 -54 -1.5 -246t-0.5 -269l63 -1q0 -30 -1 -44q-15 0 -49 -0.5t-53 -0.5l-126 -3q0 29 1 43l86 6q4 0 4 6zM258 378
q-64 0 -98 -48q-36 -46 -36 -129q0 -75 34 -117q33 -40 86 -40q46 0 108 41q5 3 5 15v251q-45 27 -99 27z" />
    <glyph glyph-name="r" unicode="r" horiz-adv-x="375" 
d="M101 361l-73 1q0 28 1 42l51 9t60 11t28 5q1 0 1 -3q2 -26 4 -133l5 -1q41 80 71 109t64 29q33 0 59 -11q0 -16 -9.5 -41t-18.5 -32q-3 0 -12.5 2t-20 3.5t-18.5 1.5q-15 0 -34 -14q-31 -28 -65 -94q-17 -31 -17 -91q-1 -35 -1 -108l94 -2q0 -29 -1 -43h-127
q-18 0 -53 -0.5t-51 -0.5q0 30 1 43l58 3q4 0 4 3v312z" />
    <glyph glyph-name="s" unicode="s" horiz-adv-x="401" 
d="M88 134l13 -65q3 -8 9 -12q27 -21 69 -21q51 0 75 16q28 21 28 56q0 34 -19 46.5t-81 31.5q-8 3 -13 4q-61 19 -87 45t-26 68q0 66 63 101q46 26 119 26q68 0 98 -18q8 -69 11 -110q-4 0 -22.5 -3t-28.5 -4l-14 63q-1 7 -7 11q-20 15 -59 15q-38 0 -62 -19
q-25 -18 -25 -52q0 -29 17.5 -41t81.5 -31q65 -19 96.5 -43.5t31.5 -76.5q0 -68 -64 -106q-42 -25 -121 -25q-74 0 -120 19q-2 19 -7 57.5t-8 58.5q24 6 52 9z" />
    <glyph glyph-name="t" unicode="t" horiz-adv-x="358" 
d="M201 -9q-48 0 -77 26q-18 16 -22.5 33t-4.5 45q0 29 0.5 87t0.5 67q0 16 0.5 60t0.5 56h-69q0 19 2 49q22 0 64 2q6 0 6 7q1 15 2 47.5t1 45.5q12 8 29 16t28.5 13t13.5 5q3 0 3 -3q-2 -68 -2 -130q106 0 157 1q0 -7 -3 -52h-156v-112q-1 -41 -1 -148q0 -31 18.5 -46
t46.5 -15q38 0 96 15q2 -8 7 -44q-69 -25 -141 -25z" />
    <glyph glyph-name="u" unicode="u" horiz-adv-x="528" 
d="M366 43l-5 1q-61 -36 -88 -45t-61 -9q-50 0 -89.5 42.5t-39.5 94.5q0 45 0.5 126.5t0.5 115.5l-61 1q0 16 2 46q12 0 45.5 1t59 2t30.5 1q3 0 3 -3q-3 -114 -3 -239q0 -72 15 -96q23 -36 69 -36q50 0 118 50v86v106.5v80.5l-64 2q0 32 1 47q21 0 78 1t61 1q2 0 2 -3
q0 -56 -1 -177t-1 -180q0 -14 7 -14l67 1q0 -29 -1 -42q-45 -15 -113 -15q-16 16 -32 53z" />
    <glyph glyph-name="v" unicode="v" horiz-adv-x="473" 
d="M475 376l-47 -3q-6 -13 -18 -39.5t-32 -71.5l-36 -81q-43 -98 -89 -190q-14 -1 -57 -1q-61 157 -82 219q-14 41 -56 161q-2 3 -4 3l-52 3q0 30 1 44h95h113q0 -30 -1 -44l-67 -2q10 -41 42 -142q44 -137 51 -156h6q40 92 58 141q44 112 56 153q2 3 -2 3l-58 3q0 30 1 43
q15 0 50 0.5t52 0.5h77q0 -29 -1 -44z" />
    <glyph glyph-name="w" unicode="w" horiz-adv-x="680" 
d="M681 377l-45 -3q-43 -134 -62 -189q-35 -104 -70 -195q-15 -1 -58 -1q-55 154 -98 304h-5q-50 -132 -127 -303q-14 -1 -54 -1q-38 123 -62 216q-7 26 -43 165q0 3 -4 3l-47 3q0 31 1 44h86h115q0 -30 -1 -44l-70 -2q3 -19 29 -143q17 -82 35 -153h5q113 293 122 315
q10 1 58 1q7 -23 28 -93t40 -131.5t29 -93.5h6q32 112 41 145q22 72 39 148q1 4 -3 4l-57 2q0 31 1 44h101q12 0 36.5 0.5t34.5 0.5q0 -29 -1 -43z" />
    <glyph glyph-name="x" unicode="x" horiz-adv-x="474" 
d="M1 43l41 3q7 2 10 6q14 15 143 159v7q-15 20 -57 73.5t-62 78.5q-3 3 -6 3l-48 3q0 30 1 43h94h107q0 -29 -1 -43l-58 -3q8 -11 21.5 -30t32 -45.5t30.5 -42.5h6q69 89 85 114q4 4 -1 4l-50 2q0 7 0.5 22t0.5 22h96q14 0 39.5 0.5t35.5 0.5q0 -30 -1 -43l-46 -4
q-10 -12 -54 -63t-77 -88v-5q24 -30 69.5 -89.5t62.5 -80.5l53 -3q0 -29 -1 -43h-91h-111q0 30 1 43l52 2q8 0 4 6q-25 38 -92 124h-5q-45 -51 -104 -130l55 -2q0 -29 -1 -43h-98q-13 0 -39 -0.5t-38 -0.5q0 30 1 43z" />
    <glyph glyph-name="y" unicode="y" horiz-adv-x="462" 
d="M466 376l-44 -3q-8 -20 -82 -201q-93 -221 -158 -319q-52 -78 -86 -98q-13 0 -37.5 17t-24.5 27q54 37 89 80q49 57 76 119q-43 103 -86 217q-10 27 -29.5 80t-28.5 75q-1 3 -5 3l-49 3q0 31 1 44h86h121q0 -30 -1 -44l-70 -2q14 -48 45 -139q30 -86 57 -159h5
q32 77 55 140q19 52 51 152q2 5 -3 5l-61 3q0 30 1 43q14 0 49 0.5t52 0.5h78q0 -29 -1 -44z" />
    <glyph glyph-name="z" unicode="z" horiz-adv-x="441" 
d="M121 50l1 -4q139 0 184 4q24 2 31 20l28 79q26 -4 51 -11q-22 -92 -34 -139q-4 0 -23 0.5t-49 0.5h-62h-117h-89q-8 18 -14 39q249 294 279 330l-1 5q-89 0 -159 -2q-23 0 -28 -15l-26 -79q-11 1 -52 9q4 16 13.5 62.5t15.5 70.5q3 0 34.5 -0.5t58.5 -0.5q111 -2 221 0
q8 -20 15 -50q-11 -13 -278 -319z" />
    <glyph glyph-name="braceleft" unicode="{" horiz-adv-x="334" 
d="M135 297v-6q31 -9 47.5 -33t15.5 -54q0 -37 -10 -94t-10 -90q0 -53 32.5 -84.5t94.5 -30.5q1 -13 1 -43q-89 0 -142.5 44.5t-53.5 115.5q0 38 12.5 96t12.5 82q0 33 -18 51.5t-68 16.5q-1 14 -1 44q51 0 69 15.5t18 44.5q0 23 -11.5 77t-11.5 91q0 78 50 122.5t146 45.5
q2 -20 0 -42q-128 0 -128 -118q0 -33 9.5 -86.5t9.5 -82.5q0 -64 -64 -82z" />
    <glyph glyph-name="bar" unicode="|" horiz-adv-x="524" 
d="M236 750h53v-1000h-53v1000z" />
    <glyph glyph-name="braceright" unicode="}" horiz-adv-x="334" 
d="M197 289v6q-63 19 -63 83q0 29 11 83t11 87q0 58 -30 87.5t-97 29.5q-2 29 -1 43q97 0 146.5 -44t49.5 -124q0 -37 -13.5 -91.5t-13.5 -76.5q0 -29 18.5 -44.5t69.5 -15.5q0 -30 -1 -44q-88 4 -88 -68q0 -25 13 -82.5t14 -94.5q0 -70 -54 -115t-142 -45q-1 15 1 43
q62 0 95 31t33 84q0 34 -11 90.5t-11 91.5q0 29 17 53t46 33z" />
    <glyph glyph-name="asciitilde" unicode="~" horiz-adv-x="524" 
d="M179 302q43 0 98 -37q3 -2 14 -9t16 -9.5t14.5 -7t17.5 -6.5t17 -2q22 0 37 21t17 52q25 2 50 0q-2 -52 -31 -93.5t-74 -41.5q-35 0 -96 38q-3 2 -17 10.5t-21 12t-19 7.5t-24 4q-25 0 -41 -19.5t-22 -51.5q-15 0 -49 2q5 54 36.5 92t76.5 38z" />
    <glyph glyph-name="uni00A0" unicode="&#xa0;" horiz-adv-x="220" 
 />
    <glyph glyph-name="exclamdown" unicode="&#xa1;" horiz-adv-x="273" 
d="M89 -234v2q19 442 21 484q8 2 28 4t24 3q0 -13 11 -228q4 -125 13 -247q-15 -5 -51 -11.5t-46 -6.5zM134 327q-24 0 -37.5 16.5t-13.5 36.5q0 19 15.5 34.5t36.5 15.5q23 0 38.5 -14.5t15.5 -35.5q0 -20 -15 -36.5t-40 -16.5z" />
    <glyph glyph-name="cent" unicode="&#xa2;" horiz-adv-x="524" 
d="M69 298q0 89 55.5 154.5t148.5 79.5q0 69 1 102q21 5 51 7q-1 -16 -1.5 -51.5t-0.5 -52.5q5 1 19 1q60 0 112 -25q0 -13 -10.5 -33t-21.5 -26q-58 31 -101 31q-1 -53 -2 -163.5t-2 -163.5q60 3 133 34q4 -10 13 -42q-79 -36 -146 -42q0 -20 -0.5 -55.5t-0.5 -50.5
q-14 -2 -48 -4q0 69 1 108q-86 3 -143 52t-57 140zM143 314q0 -76 38 -117q33 -33 87 -38q0 52 1 162t2 162q-58 -9 -93 -59.5t-35 -109.5z" />
    <glyph glyph-name="sterling" unicode="&#xa3;" horiz-adv-x="524" 
d="M345 654q52 0 91 -15q7 -64 12 -142l-54 -6l-16 94q-4 11 -10 13q-20 7 -50 7q-48 0 -79 -32q-33 -33 -33 -104q0 -6 13 -139q47 0 181 2q0 -27 -3 -51h-172q2 -24 2 -34q0 -108 -62 -189q-7 -10 8 -10q196 0 220 7q12 1 19 21l33 98q16 -3 51 -12q-12 -59 -38 -163
q-13 0 -129.5 0.5t-194.5 0.5q-20 0 -59.5 -0.5t-60.5 -0.5q0 33 1 48l69 3q10 0 16 6q52 53 52 166q0 32 -4 59h-100q0 17 2 47q29 1 87 1q5 0 4 6q-13 102 -13 123q0 92 61 145q60 51 156 51z" />
    <glyph glyph-name="currency" unicode="&#xa4;" horiz-adv-x="524" 
d="M271 497q58 0 99 -27q13 16 36 42.5t32 37.5q21 -17 41 -40q-9 -10 -20 -22t-25.5 -28.5t-23.5 -26.5q37 -47 37 -112q0 -83 -48 -129q54 -62 78 -89q-22 -20 -40 -33q-29 34 -76 88q-42 -29 -103 -29q-56 0 -94 23q-52 -58 -75 -83q-19 14 -39 33q20 24 73 83
q-44 46 -44 120q0 71 45 123q-27 31 -73 81q19 20 41 39q14 -16 73 -83q45 32 106 32zM264 449q-50 0 -79 -29q-45 -45 -45 -108q0 -69 41 -108q30 -27 80 -27t80 26q45 37 45 114q0 69 -42 106q-30 26 -80 26z" />
    <glyph glyph-name="yen" unicode="&#xa5;" horiz-adv-x="524" 
d="M233 54v90q-22 0 -76 -0.5t-78 -0.5q-1 16 1 43h153v61h-155q0 29 1 42q45 1 139 1q-34 62 -158 293q-3 5 -7 5l-41 2q0 31 1 46q9 0 37.5 -0.5t44.5 -0.5q26 0 71.5 0.5t63.5 0.5q0 -31 -1 -46l-87 -3q46 -93 136 -279h5q80 164 131 274q2 5 -4 5l-80 3q0 30 1 45h117
q13 0 39.5 0.5t35.5 0.5q0 -31 -1 -45l-42 -4q-107 -201 -159 -296q93 0 136 1q0 -31 -1 -45h-154l-1 -61q27 0 78 0.5t75 0.5q0 -28 -1 -42q-20 0 -73.5 -0.5t-78.5 -0.5l-1 -95l96 -3q0 -31 -1 -46q-17 0 -61 0.5t-66 0.5q-20 0 -62.5 -0.5t-62.5 -0.5q-1 16 1 46l83 2
q6 1 6 6z" />
    <glyph glyph-name="brokenbar" unicode="&#xa6;" horiz-adv-x="524" 
d="M236 675h53v-350h-53v350zM236 175h53v-350h-53v350z" />
    <glyph glyph-name="section" unicode="&#xa7;" horiz-adv-x="452" 
d="M395 200q0 -77 -48 -130q19 -31 19 -73q0 -74 -52 -123q-51 -49 -127 -49q-100 0 -166 61q6 15 19.5 28.5t27.5 16.5q23 -24 57 -40.5t69 -16.5q50 0 79 32q26 27 26 73q0 41 -24 70t-87 67q-65 40 -96.5 82t-31.5 98q0 72 54 130q-28 35 -28 84q0 65 58 112
q46 37 119 37q89 0 142 -50q-4 -13 -17.5 -26.5t-27.5 -18.5q-16 17 -48 31.5t-60 14.5q-45 0 -69 -21q-31 -28 -31 -70q0 -38 26 -65t98 -75q62 -39 90.5 -81t28.5 -98zM119 317q0 -45 24 -76t79 -67q71 -48 93 -72q22 30 22 78q0 47 -23 76.5t-80 69.5q-73 54 -89 69
q-26 -29 -26 -78z" />
    <glyph glyph-name="dieresis" unicode="&#xa8;" horiz-adv-x="333" 
d="M89 581q22 0 32 -13.5t10 -30.5q0 -16 -11.5 -29t-30.5 -13t-31.5 12t-12.5 31q0 16 11.5 29.5t32.5 13.5zM247 581q19 0 30 -13.5t11 -29.5q0 -19 -12 -31t-31 -12q-20 0 -31.5 13t-11.5 29q0 17 10.5 30.5t34.5 13.5z" />
    <glyph glyph-name="copyright" unicode="&#xa9;" horiz-adv-x="761" 
d="M385 660q139 0 231.5 -96t92.5 -236t-96 -239t-235 -99t-232.5 96t-93.5 236t97 239t236 99zM380 622q-120 0 -199.5 -87.5t-79.5 -210.5q0 -124 79.5 -210t200.5 -86q120 0 199.5 87.5t79.5 210.5q0 124 -79 210t-201 86zM461 385l-9 64q0 4 -4 8q-17 10 -44 10
q-45 0 -78 -29q-48 -46 -48 -124q0 -62 33 -97q32 -33 90 -33q48 0 98 24q7 -23 8 -39q-62 -29 -118 -29q-69 0 -115 34q-61 46 -61 132q0 98 73 158q53 45 133 45q53 0 77 -12q5 -51 6 -107q-23 -4 -41 -5z" />
    <glyph glyph-name="ordfeminine" unicode="&#xaa;" horiz-adv-x="361" 
d="M227 353h-3q-62 -33 -109 -33q-28 0 -56 21.5t-28 51.5q0 38 38 70.5t104 32.5h53q1 55 -13 78.5t-47 23.5q-44 0 -88 -46q-18 16 -29 30q64 64 135 64q44 0 74 -30.5t30 -88.5q0 -18 -0.5 -77.5t-0.5 -74.5q0 -11 5 -11l52 2v-35q-44 -11 -95 -11q-12 12 -22 33zM96 400
q0 -17 14.5 -26.5t36.5 -9.5q35 0 75 28q3 2 3 5v61q-8 2 -35 2q-46 0 -70 -16t-24 -44z" />
    <glyph glyph-name="guillemotleft" unicode="&#xab;" horiz-adv-x="411" 
d="M118 223q39 -63 98 -144q-16 -16 -31 -27q-72 78 -141 150q-1 12 -1 37q60 62 141 151q11 -8 31 -28q-66 -92 -97 -139zM274 223q48 -74 97 -138q-12 -13 -29 -27q-70 76 -137 146q-2 17 0 33q26 28 76 82.5t59 64.5q15 -12 30 -27q-89 -124 -96 -134z" />
    <glyph glyph-name="logicalnot" unicode="&#xac;" horiz-adv-x="524" 
d="M403 33v189h-344q0 20 2 54q63 0 197 1t197 2q4 0 4 -4q0 -37 -1 -122.5t-1 -116.5q-25 -3 -54 -3z" />
    <glyph glyph-name="uni00AD" unicode="&#xad;" horiz-adv-x="315" 
d="M131 213h-99q0 36 1 52q35 1 102 1q26 0 74.5 0.5t73.5 1.5q0 -21 -2 -55h-150z" />
    <glyph glyph-name="registered" unicode="&#xae;" horiz-adv-x="475" 
d="M238 660h2q78 0 130 -53.5t52 -133.5q0 -77 -54.5 -132.5t-131.5 -55.5q-79 0 -131 53.5t-52 132.5q0 78 53.5 133.5t131.5 55.5zM236 630q-64 0 -106 -46t-42 -113q0 -66 42 -111t107 -45q64 0 107 46t43 112q0 67 -42.5 112t-108.5 45zM172 400v147h-22q0 18 1 26
q23 1 67 1q40 0 59 -5t30 -18t11 -27q0 -39 -42 -56v-4q15 -7 37 -51q7 -13 15 -13h14v-26h-55q-6 8 -18.5 35t-16.5 33q-7 10 -24 10h-13v-52h24v-26h-88v26h21zM215 547v-69h12q23 0 34.5 10.5t11.5 26.5q0 32 -44 32h-14z" />
    <glyph glyph-name="macron" unicode="&#xaf;" horiz-adv-x="333" 
d="M267 555v-48q-29 0 -98.5 0.5t-102.5 0.5q-2 22 0 45q134 2 201 2z" />
    <glyph glyph-name="degree" unicode="&#xb0;" horiz-adv-x="314" 
d="M160 655q50 0 79.5 -28.5t29.5 -74.5q0 -45 -32.5 -76t-78.5 -31q-47 0 -79 28t-32 75q0 43 32.5 75t80.5 32zM158 614q-25 0 -40 -19.5t-15 -45.5q0 -27 16 -44.5t40 -17.5q26 0 40 18t14 45q0 28 -14 46t-41 18z" />
    <glyph glyph-name="plusminus" unicode="&#xb1;" horiz-adv-x="524" 
d="M235 315v153q54 3 56 3q0 -19 -0.5 -71.5t-0.5 -83.5q119 0 173 1q1 -25 -2 -57h-171q-1 -53 -1 -146q-32 -2 -54 -2v148h-171q0 20 2 54q110 0 169 1zM461 1l-398 -1q0 20 2 54q150 0 398 2q0 -21 -2 -55z" />
    <glyph glyph-name="twosuperior" unicode="&#xb2;" 
d="M279 662q0 -66 -98 -145q-11 -9 -28 -21.5t-22 -16.5l1 -5q19 0 79 2t71 2q3 0 3 -2q-2 -30 -3 -44h-151h-79q-6 14 -11 32q61 42 93 70q27 24 38.5 36t27 38t15.5 51t-16 45q-15 15 -45 15t-46 -13q-3 -2 -3 -6l-9 -53l-42 3q1 16 3 46t2 43q46 19 101 19q60 0 88 -25
q31 -29 31 -71z" />
    <glyph glyph-name="threesuperior" unicode="&#xb3;" 
d="M88 523l12 -49q2 -4 4 -5q13 -9 42 -9q35 0 55 14q22 17 22 44q0 28 -23 43.5t-61 15.5h-38q-1 13 -1 38q115 -1 115 58q0 22 -14 33q-13 13 -47 13q-28 0 -45 -11q-3 -3 -3 -6l-8 -47q-14 0 -42 2q2 26 4 81q41 18 104 18q59 0 87 -21q28 -22 28 -52q0 -58 -72 -79v-4
q40 -5 60.5 -27.5t20.5 -49.5q0 -48 -42 -75q-35 -25 -106 -25q-55 0 -84 7q-7 50 -11 86q15 3 43 7z" />
    <glyph glyph-name="acute" unicode="&#xb4;" horiz-adv-x="333" 
d="M222 640q16 -13 43 -44q-133 -108 -149 -121q-3 3 -8.5 9.5t-10.5 11.5t-9 10q22 21 67.5 67.5t66.5 66.5z" />
    <glyph glyph-name="mu" unicode="&#xb5;" horiz-adv-x="530" 
d="M151 24l-4 -1q0 -119 3 -242q-13 -10 -37 -16.5t-37 -6.5q4 129 4 367q0 114 2 274q36 21 75 21q2 0 2 -3q-2 -154 -2 -238q0 -66 16 -93q24 -40 75 -40q32 0 72.5 26t40.5 46v280q33 22 76 22q2 0 2 -3q0 -147 -2 -303q0 -71 31 -71q16 0 48 10q4 -18 8 -41
q-46 -22 -111 -22q-25 17 -45 61l-5 1q-81 -62 -135 -62q-40 0 -77 34z" />
    <glyph glyph-name="paragraph" unicode="&#xb6;" horiz-adv-x="536" 
d="M448 602l-3 -721q-23 -6 -52 -9l-1 731h-68l-2 -724q-17 -5 -53 -11v360h-14q-51 0 -89 15q-57 22 -93 69.5t-36 116.5q0 66 36 117.5t86 74.5q63 29 181 29q24 0 168 -3q0 -7 0.5 -22.5t0.5 -23.5z" />
    <glyph glyph-name="periodcentered" unicode="&#xb7;" horiz-adv-x="245" 
d="M125 316q27 0 40 -17.5t13 -38.5q0 -22 -15 -38.5t-39 -16.5q-25 0 -40.5 15.5t-15.5 38.5q0 22 15 39.5t42 17.5z" />
    <glyph glyph-name="cedilla" unicode="&#xb8;" horiz-adv-x="333" 
d="M151 -71l74 72h50l-61 -63q27 -5 42 -22t15 -41q0 -37 -34.5 -60t-90.5 -24q-2 8 -4 34q72 5 72 44q0 17 -13 28q-12 11 -41 11q-2 4 -5 11.5t-4 9.5z" />
    <glyph glyph-name="onesuperior" unicode="&#xb9;" 
d="M210 469l77 -1q0 -25 -1 -37h-106h-116q0 24 1 36l83 2q2 0 2 2v219q-44 -9 -85 -20q-1 6 -3.5 19t-3.5 19q28 9 65.5 22.5t59.5 21.5t27 8q1 0 1 -3q0 -46 -0.5 -143.5t-0.5 -144.5z" />
    <glyph glyph-name="ordmasculine" unicode="&#xba;" horiz-adv-x="385" 
d="M186 321q-67 0 -101 37q-48 46 -48 118q0 84 59 135q42 35 102 35q59 0 93 -27q57 -43 57 -127q0 -92 -65 -142q-38 -29 -97 -29zM192 358q35 0 58 22q31 31 31 106q0 66 -28 97q-22 26 -59 26q-33 0 -57 -25q-33 -36 -33 -99q0 -70 30 -102q22 -25 58 -25z" />
    <glyph glyph-name="guillemotright" unicode="&#xbb;" horiz-adv-x="411" 
d="M137 221q-42 62 -96 136q10 11 29 28q15 -16 62.5 -67.5t74.5 -79.5q0 -11 -2 -33q-88 -96 -135 -146q-17 14 -30 28q39 50 97 134zM293 221q-52 78 -97 141q13 15 31 29q22 -25 141 -151q0 -25 -1 -37q-21 -23 -68 -73t-72 -77q-30 27 -31 28q48 65 97 140z" />
    <glyph glyph-name="onequarter" unicode="&#xbc;" horiz-adv-x="733" 
d="M226 365l77 -1v-37h-107h-116q0 24 1 36l83 2q2 0 2 2v219q-44 -9 -85 -20q-1 6 -3.5 19t-3.5 19q28 9 65.5 22.5t59.5 21.5t27 8q1 0 1 -3q0 -46 -0.5 -143.5t-0.5 -144.5zM224 -15q-21 7 -42 18q65 112 166 297q12 23 83.5 154t110.5 205q33 -11 45 -17
q-174 -318 -199 -363q-69 -128 -164 -294zM620 34l42 -1v-33h-76h-83v33l63 1q3 0 3 2v43h-152q-14 26 -19 38q6 7 75 98q53 68 86 109q43 0 63 -1q0 -33 -0.5 -101.5t-0.5 -101.5h59q0 -26 -1 -40h-59v-46zM569 267h-6q-9 -13 -27 -36.5t-29 -38.5t-28.5 -38t-21.5 -28
q-2 -6 3 -6h109v147z" />
    <glyph glyph-name="onehalf" unicode="&#xbd;" horiz-adv-x="733" 
d="M215 365l77 -1q0 -25 -1 -37h-106h-116q0 24 1 36l83 2q2 0 2 2v219q-44 -9 -85 -20q-1 6 -3.5 19t-3.5 19q28 9 65.5 22.5t59.5 21.5t27 8q1 0 1 -3q0 -46 -0.5 -143.5t-0.5 -144.5zM209 -15q-21 7 -42 18q68 119 166 298q70 129 193 358q36 -12 46 -17
q-39 -70 -107 -195t-92 -168q-26 -48 -85.5 -154t-78.5 -140zM669 230q0 -67 -98 -144q-13 -11 -51 -39l1 -4q9 0 151 3q3 0 3 -2q-1 -7 -2 -22t-1 -22h-151h-80q-6 14 -11 32q61 42 93 70q26 23 38.5 35.5t28 38.5t15.5 51q0 26 -17 45q-14 15 -45 15q-30 0 -46 -13
q-3 -2 -3 -6l-9 -53q-5 0 -13.5 1t-15.5 1.5t-13 0.5q1 16 3 46t2 43q46 19 102 19q60 0 88 -25q31 -29 31 -71z" />
    <glyph glyph-name="threequarters" unicode="&#xbe;" horiz-adv-x="733" 
d="M112 419l12 -49q2 -4 4 -5q14 -9 42 -9q35 0 55 14q22 17 22 44q0 28 -23 43.5t-61 15.5h-38q-1 13 -1 38q115 -1 115 58q0 22 -14 33q-13 13 -47 13q-28 0 -45 -11l-3 -6l-8 -47q-14 0 -42 2q2 26 4 81q41 18 104 18q61 0 87 -21q28 -21 28 -52q0 -58 -72 -79v-4
q40 -5 60.5 -27.5t20.5 -49.5q0 -48 -42 -75q-35 -25 -106 -25q-55 0 -84 7q-6 40 -12 87q22 4 44 6zM220 -15q-22 8 -41 18q71 125 165 297q81 151 193 359q36 -12 46 -17q-70 -125 -199 -364q-75 -138 -164 -293zM614 34l42 -1v-33h-76h-83v33l63 1q3 0 3 2v43h-152
q-3 6 -6.5 12.5t-7 14t-5.5 11.5q6 7 75 98q53 68 86 109q43 0 63 -1q0 -33 -0.5 -101.5t-0.5 -101.5h59q0 -26 -1 -40h-59v-46zM563 267h-6q-9 -13 -27 -36.5t-29 -38.5q-33 -43 -49 -66q-4 -6 2 -6h109v147z" />
    <glyph glyph-name="questiondown" unicode="&#xbf;" horiz-adv-x="426" 
d="M229 328q-24 0 -38 16.5t-14 36.5q0 19 15.5 34t36.5 15q23 0 39 -13.5t16 -34.5t-15 -37.5t-40 -16.5zM40 -81q0 59 38 108.5t116 104.5q28 21 28 36q0 21 -20 79q22 11 51 17q14 -17 30.5 -58.5t16.5 -66.5q-96 -65 -134.5 -109.5t-38.5 -105.5q0 -49 28.5 -78.5
t78.5 -29.5q44 0 73 21q5 5 6 12l18 86q23 -1 56 -7q-1 -13 -12 -132q-66 -32 -155 -32q-88 0 -134 46t-46 109z" />
    <glyph glyph-name="Agrave" unicode="&#xc0;" horiz-adv-x="606" 
d="M-13 46l56 3q4 2 5 5q34 87 231 605q12 1 55 1q39 -105 121.5 -336t97.5 -274l61 -3q0 -32 -1 -46h-94q-24 0 -68.5 -0.5t-63.5 -0.5q0 8 0.5 23t0.5 23l78 3q4 0 2 5q-40 116 -51 144q-1 5 -7 5l-239 -1q-43 -122 -53 -152l90 -3q0 -31 -1 -46h-133q-15 0 -45 -0.5
t-43 -0.5q0 31 1 46zM299 548h-4q-18 -48 -54.5 -149t-51.5 -143q-3 -6 2 -6h210q-25 75 -102 298zM211 850q23 -16 155 -114q-9 -16 -23 -34q-21 12 -80.5 45.5t-88.5 49.5q17 29 37 53z" />
    <glyph glyph-name="Aacute" unicode="&#xc1;" horiz-adv-x="606" 
d="M-13 46l56 3q4 2 5 5q34 87 231 605q12 1 55 1q39 -105 121.5 -336t97.5 -274l61 -3q0 -32 -1 -46h-94q-24 0 -68.5 -0.5t-63.5 -0.5q0 8 0.5 23t0.5 23l78 3q4 0 2 5q-40 116 -51 144q-1 5 -7 5l-239 -1q-43 -122 -53 -152l90 -3q0 -31 -1 -46h-133q-15 0 -45 -0.5
t-43 -0.5q0 31 1 46zM299 548h-4q-18 -48 -54.5 -149t-51.5 -143q-3 -6 2 -6h210q-25 75 -102 298zM400 850q21 -26 37 -53q-42 -24 -169 -95q-14 18 -23 34q26 18 81.5 59.5t73.5 54.5z" />
    <glyph glyph-name="Acircumflex" unicode="&#xc2;" horiz-adv-x="606" 
d="M-13 46l56 3q4 2 5 5q34 87 231 605q12 1 55 1q39 -105 121.5 -336t97.5 -274l61 -3q0 -32 -1 -46h-94q-24 0 -68.5 -0.5t-63.5 -0.5q0 8 0.5 23t0.5 23l78 3q4 0 2 5q-40 116 -51 144q-1 5 -7 5l-239 -1q-43 -122 -53 -152l90 -3q0 -31 -1 -46h-133q-15 0 -45 -0.5
t-43 -0.5q0 31 1 46zM299 548h-4q-18 -48 -54.5 -149t-51.5 -143q-3 -6 2 -6h210q-25 75 -102 298zM311 778q-93 -60 -112 -73q-19 21 -26 31q49 39 120 99q11 1 35 1q15 -12 118 -98q-9 -14 -27 -32q-34 23 -108 72z" />
    <glyph glyph-name="Atilde" unicode="&#xc3;" horiz-adv-x="606" 
d="M-13 46l56 3q4 2 5 5q34 87 231 605q12 1 55 1q39 -105 121.5 -336t97.5 -274l61 -3q0 -32 -1 -46h-94q-24 0 -68.5 -0.5t-63.5 -0.5q0 8 0.5 23t0.5 23l78 3q4 0 2 5q-40 116 -51 144q-1 5 -7 5l-239 -1q-43 -122 -53 -152l90 -3q0 -31 -1 -46h-133q-15 0 -45 -0.5
t-43 -0.5q0 31 1 46zM299 548h-4q-18 -48 -54.5 -149t-51.5 -143q-3 -6 2 -6h210q-25 75 -102 298zM254 809q29 0 71 -26q38 -21 53 -21q30 0 34 45h11.5h15h12.5q0 -38 -20.5 -68.5t-56.5 -30.5q-19 0 -64 25q-40 23 -59 23q-13 0 -23.5 -12t-13.5 -31h-38q1 38 23 67
t55 29z" />
    <glyph glyph-name="Adieresis" unicode="&#xc4;" horiz-adv-x="606" 
d="M-13 46l56 3q4 2 5 5q34 87 231 605q12 1 55 1q39 -105 121.5 -336t97.5 -274l61 -3q0 -32 -1 -46h-94q-24 0 -68.5 -0.5t-63.5 -0.5q0 8 0.5 23t0.5 23l78 3q4 0 2 5q-40 116 -51 144q-1 5 -7 5l-239 -1q-43 -122 -53 -152l90 -3q0 -31 -1 -46h-133q-15 0 -45 -0.5
t-43 -0.5q0 31 1 46zM299 548h-4q-18 -48 -54.5 -149t-51.5 -143q-3 -6 2 -6h210q-25 75 -102 298zM228 805q20 0 30.5 -14t10.5 -31q0 -16 -11.5 -29t-30.5 -13t-31.5 12t-12.5 31q0 17 11.5 30.5t33.5 13.5zM397 805q20 0 31 -13.5t11 -30.5q0 -18 -12 -30.5t-29 -12.5
q-21 0 -33.5 13t-12.5 29q0 17 11 31t34 14z" />
    <glyph glyph-name="Aring" unicode="&#xc5;" horiz-adv-x="606" 
d="M-13 46l56 3q4 2 5 5q34 87 231 605q12 1 55 1q39 -105 121.5 -336t97.5 -274l61 -3q0 -32 -1 -46h-94q-24 0 -68.5 -0.5t-63.5 -0.5q0 8 0.5 23t0.5 23l78 3q4 0 2 5q-40 116 -51 144q-1 5 -7 5l-239 -1q-43 -122 -53 -152l90 -3q0 -31 -1 -46h-133q-15 0 -45 -0.5
t-43 -0.5q0 31 1 46zM299 548h-4q-18 -48 -54.5 -149t-51.5 -143q-3 -6 2 -6h210q-25 75 -102 298zM308 870q42 0 68.5 -24t26.5 -60q0 -37 -27.5 -61.5t-68.5 -24.5q-42 0 -70 22.5t-28 61.5q0 34 28 60t71 26zM306 833q-21 0 -34 -14.5t-13 -34.5t13.5 -33.5t34.5 -13.5
t33.5 13.5t12.5 34.5t-12.5 34.5t-34.5 13.5z" />
    <glyph glyph-name="AE" unicode="&#xc6;" horiz-adv-x="853" 
d="M426 272l-187 -1q-20 -38 -122 -221l91 -3q0 -31 -1 -47q-20 0 -66.5 0.5t-72.5 0.5q-15 0 -44.5 -0.5t-42.5 -0.5q0 31 1 46l57 4q6 0 7 4q60 100 185.5 313.5t164.5 279.5q3 3 5 3q4 0 44 -0.5t63 -0.5q160 0 184 1h86q6 -73 9 -151q-8 -1 -53 -6l-16 86q-3 17 -23 19
q-42 4 -154 4h-30l-1 -279q48 0 152 2q14 0 18.5 4.5t6.5 14.5l4 48q27 2 51 0q-1 -30 -1 -95q-1 -30 -1 -89q-32 -2 -51 -2l-3 49q-1 19 -25 19q-43 1 -151 1l-1 -207q0 -13 8.5 -16.5t47.5 -3.5q122 0 150 7q13 3 19 20l30 87q39 -6 52 -10q-20 -96 -33 -153
q-11 0 -119.5 0.5t-187.5 0.5q-22 0 -63 -0.5t-59 -0.5q0 32 1 47l72 3q4 0 4 3v216q0 4 -5 4zM431 596h-4q-76 -127 -158 -271q-3 -6 2 -6h160v277z" />
    <glyph glyph-name="Ccedilla" unicode="&#xc7;" horiz-adv-x="585" 
d="M271 -77l70 68h-6q-101 0 -178 60q-49 38 -78 100t-29 137q0 189 132 296q90 76 226 76q81 0 127 -21q8 -111 10 -169q-16 -3 -56 -7l-17 108q-1 11 -8 15q-28 18 -82 18q-95 0 -158 -64q-89 -91 -89 -228q0 -67 13.5 -112t47.5 -84q60 -68 167 -68q79 0 177 37
q9 -30 12 -51q-78 -30 -153 -40l-59 -61q34 -5 51 -23.5t17 -43.5q0 -38 -38 -63.5t-103 -26.5q-4 19 -5 37q82 2 82 47q0 19 -13 28q-13 11 -51 11z" />
    <glyph glyph-name="Egrave" unicode="&#xc8;" horiz-adv-x="555" 
d="M51 46l69 3q3 0 3 3v549l-73 2q0 32 1 47q17 0 56 -0.5t59 -0.5q15 0 112.5 0.5t108.5 0.5h87q9 -139 9 -151q-6 -1 -24.5 -3.5t-28.5 -3.5l-16 87q-3 16 -23 18q-65 5 -159 5q-5 0 -16 -0.5t-13 -0.5l-1 -246q28 0 78.5 0.5t77.5 1.5q13 1 17.5 5.5t6.5 14.5l5 48
q35 0 51 -1q-2 -60 -2 -95v-92q-33 -2 -52 -1l-3 52q-1 19 -24 19q-46 1 -155 1l-1 -240q0 -13 8.5 -16.5t47.5 -3.5q125 0 155 7q12 3 18 20l32 91q11 -2 29.5 -5.5t22.5 -4.5q-14 -64 -35 -157q-12 0 -122 0.5t-189 0.5q-22 0 -61.5 -0.5t-56.5 -0.5q0 32 1 47zM205 850
q26 -19 80 -59.5l74 -55.5q-8 -14 -23 -34q-23 13 -81.5 46.5t-86.5 48.5q18 32 37 54z" />
    <glyph glyph-name="Eacute" unicode="&#xc9;" horiz-adv-x="555" 
d="M51 46l69 3q3 0 3 3v549l-73 2q0 32 1 47q17 0 56 -0.5t59 -0.5q15 0 112.5 0.5t108.5 0.5h87q9 -139 9 -151q-6 -1 -24.5 -3.5t-28.5 -3.5l-16 87q-3 16 -23 18q-65 5 -159 5q-5 0 -16 -0.5t-13 -0.5l-1 -246q28 0 78.5 0.5t77.5 1.5q13 1 17.5 5.5t6.5 14.5l5 48
q35 0 51 -1q-2 -60 -2 -95v-92q-33 -2 -52 -1l-3 52q-1 19 -24 19q-46 1 -155 1l-1 -240q0 -13 8.5 -16.5t47.5 -3.5q125 0 155 7q12 3 18 20l32 91q11 -2 29.5 -5.5t22.5 -4.5q-14 -64 -35 -157q-12 0 -122 0.5t-189 0.5q-22 0 -61.5 -0.5t-56.5 -0.5q0 32 1 47zM381 849
q21 -25 37 -53q-107 -61 -168 -95q-14 17 -23 34q123 91 154 114z" />
    <glyph glyph-name="Ecircumflex" unicode="&#xca;" horiz-adv-x="555" 
d="M51 46l69 3q3 0 3 3v549l-73 2q0 32 1 47q17 0 56 -0.5t59 -0.5q15 0 112.5 0.5t108.5 0.5h87q9 -139 9 -151q-6 -1 -24.5 -3.5t-28.5 -3.5l-16 87q-3 16 -23 18q-65 5 -159 5q-5 0 -16 -0.5t-13 -0.5l-1 -246q28 0 78.5 0.5t77.5 1.5q13 1 17.5 5.5t6.5 14.5l5 48
q35 0 51 -1q-2 -60 -2 -95v-92q-33 -2 -52 -1l-3 52q-1 19 -24 19q-46 1 -155 1l-1 -240q0 -13 8.5 -16.5t47.5 -3.5q125 0 155 7q12 3 18 20l32 91q11 -2 29.5 -5.5t22.5 -4.5q-14 -64 -35 -157q-12 0 -122 0.5t-189 0.5q-22 0 -61.5 -0.5t-56.5 -0.5q0 32 1 47zM277 779
q-12 -8 -35.5 -23.5t-42 -28t-33.5 -22.5q-19 21 -26 31q13 11 38 31.5t45 37t37 30.5q11 1 35 1q15 -12 118 -98q-9 -14 -27 -32q-6 5 -109 73z" />
    <glyph glyph-name="Edieresis" unicode="&#xcb;" horiz-adv-x="555" 
d="M51 46l69 3q3 0 3 3v549l-73 2q0 32 1 47q17 0 56 -0.5t59 -0.5q15 0 112.5 0.5t108.5 0.5h87q9 -139 9 -151q-6 -1 -24.5 -3.5t-28.5 -3.5l-16 87q-3 16 -23 18q-65 5 -159 5q-5 0 -16 -0.5t-13 -0.5l-1 -246q28 0 78.5 0.5t77.5 1.5q13 1 17.5 5.5t6.5 14.5l5 48
q35 0 51 -1q-2 -60 -2 -95v-92q-33 -2 -52 -1l-3 52q-1 19 -24 19q-46 1 -155 1l-1 -240q0 -13 8.5 -16.5t47.5 -3.5q125 0 155 7q12 3 18 20l32 91q11 -2 29.5 -5.5t22.5 -4.5q-14 -64 -35 -157q-12 0 -122 0.5t-189 0.5q-22 0 -61.5 -0.5t-56.5 -0.5q0 32 1 47zM193 806
q20 0 30.5 -14t10.5 -31q0 -16 -11.5 -29t-30.5 -13t-31.5 12t-12.5 31q0 17 11.5 30.5t33.5 13.5zM362 806q20 0 31 -13.5t11 -30.5q0 -18 -12 -30.5t-29 -12.5q-21 0 -33.5 13t-12.5 29q0 17 11 31t34 14z" />
    <glyph glyph-name="Igrave" unicode="&#xcc;" horiz-adv-x="324" 
d="M123 601l-79 3q0 7 0.5 22.5t0.5 23.5q17 0 60 -0.5t64 -0.5q20 0 60 0.5t57 0.5q0 -8 -0.5 -23.5t-0.5 -22.5l-79 -3q-3 0 -3 -4l-2 -547l85 -3q0 -32 -1 -47q-16 0 -57 0.5t-62 0.5q-20 0 -61 -0.5t-59 -0.5q0 31 1 47l72 3q4 0 4 4v547zM90 850q11 -8 68.5 -51.5
t84.5 -63.5q-9 -17 -23 -34q-127 72 -168 95q21 34 38 54z" />
    <glyph glyph-name="Iacute" unicode="&#xcd;" horiz-adv-x="324" 
d="M123 601l-79 3q0 7 0.5 22.5t0.5 23.5q17 0 60 -0.5t64 -0.5q20 0 60 0.5t57 0.5q0 -8 -0.5 -23.5t-0.5 -22.5l-79 -3q-3 0 -3 -4l-2 -547l85 -3q0 -32 -1 -47q-16 0 -57 0.5t-62 0.5q-20 0 -61 -0.5t-59 -0.5q0 31 1 47l72 3q4 0 4 4v547zM246 849q21 -25 37 -53
q-153 -87 -167 -95q-12 14 -24 34q32 23 154 114z" />
    <glyph glyph-name="Icircumflex" unicode="&#xce;" horiz-adv-x="324" 
d="M123 601l-79 3q0 7 0.5 22.5t0.5 23.5q17 0 60 -0.5t64 -0.5q20 0 60 0.5t57 0.5q0 -8 -0.5 -23.5t-0.5 -22.5l-79 -3q-3 0 -3 -4l-2 -547l85 -3q0 -32 -1 -47q-16 0 -57 0.5t-62 0.5q-20 0 -61 -0.5t-59 -0.5q0 31 1 47l72 3q4 0 4 4v547zM165 778q-75 -48 -111 -73
q-19 21 -26 31q22 18 64 52.5t56 46.5q11 1 34 1q15 -12 118 -98q-9 -14 -27 -32q-20 14 -108 72z" />
    <glyph glyph-name="Idieresis" unicode="&#xcf;" horiz-adv-x="324" 
d="M123 601l-79 3q0 7 0.5 22.5t0.5 23.5q17 0 60 -0.5t64 -0.5q20 0 60 0.5t57 0.5q0 -8 -0.5 -23.5t-0.5 -22.5l-79 -3q-3 0 -3 -4l-2 -547l85 -3q0 -32 -1 -47q-16 0 -57 0.5t-62 0.5q-20 0 -61 -0.5t-59 -0.5q0 31 1 47l72 3q4 0 4 4v547zM87 806q20 0 30.5 -14
t10.5 -31q0 -16 -11.5 -29t-30.5 -13t-31.5 12t-12.5 31q0 17 11.5 30.5t33.5 13.5zM257 806q20 0 31 -13.5t11 -30.5q0 -18 -12 -30.5t-29 -12.5q-21 0 -33.5 13t-12.5 29q0 17 11 31t34 14z" />
    <glyph glyph-name="Eth" unicode="&#xd0;" horiz-adv-x="708" 
d="M140 346v254l-74 3q0 32 1 46q108 2 205 2q90 0 143 -11.5t98 -36.5q68 -39 107 -108.5t39 -149.5q0 -186 -124 -280q-86 -65 -233 -65h-120q-17 0 -57 -0.5t-59 -0.5q-1 17 1 46l69 3q4 0 4 5v243h-88q0 35 1 49q29 1 87 1zM220 296l-1 -215q0 -21 13.5 -28.5t62.5 -7.5
q128 0 201 64q35 31 57 87.5t22 117.5q0 83 -21 135t-69 94q-71 63 -209 63q-42 0 -55 -4l-1 -256q29 1 88.5 1.5t91.5 0.5q0 -20 -2 -52h-178z" />
    <glyph glyph-name="Ntilde" unicode="&#xd1;" horiz-adv-x="716" 
d="M48 46l64 3q4 0 4 4v549l-73 2q-1 16 1 47q22 0 71.5 -0.5t72.5 -0.5q186 -275 358 -540l5 1q-2 328 -4 491l-94 1q0 8 0.5 24t0.5 23h124q18 0 50.5 0.5t45.5 0.5v-15v-17v-14l-61 -3q-3 0 -3 -4l-3 -594q-24 -11 -53 -11q-165 227 -372 539h-6q0 -322 -1 -483l100 -2
q0 -7 -0.5 -23t-0.5 -23h-132q-17 0 -49.5 -0.5t-45.5 -0.5q0 32 1 46zM314 809q28 0 70 -26q38 -21 53 -21q30 0 34 45h11.5h15h12.5q0 -38 -20.5 -68.5t-56.5 -30.5q-19 0 -64 25q-40 23 -59 23q-13 0 -23.5 -12t-13.5 -31h-38q1 38 23.5 67t55.5 29z" />
    <glyph glyph-name="Ograve" unicode="&#xd2;" horiz-adv-x="718" 
d="M346 -10q-125 0 -207 84q-89 89 -89 246q0 92 39.5 167.5t99.5 116.5q83 56 189 56q97 0 168 -50q55 -39 88.5 -109.5t33.5 -155.5q0 -171 -104 -274q-84 -81 -218 -81zM361 40q95 0 149 62q72 85 72 222q0 145 -71 225q-57 61 -145 61q-84 0 -142 -52q-88 -80 -88 -232
q0 -146 74 -224q58 -62 151 -62zM287 856q26 -19 80 -59.5l74 -55.5q-5 -9 -23 -34q-95 54 -168 95q18 32 37 54z" />
    <glyph glyph-name="Oacute" unicode="&#xd3;" horiz-adv-x="718" 
d="M346 -10q-125 0 -207 84q-89 89 -89 246q0 92 39.5 167.5t99.5 116.5q83 56 189 56q97 0 168 -50q55 -39 88.5 -109.5t33.5 -155.5q0 -171 -104 -274q-84 -81 -218 -81zM361 40q95 0 149 62q72 85 72 222q0 145 -71 225q-57 61 -145 61q-84 0 -142 -52q-88 -80 -88 -232
q0 -146 74 -224q58 -62 151 -62zM457 855q21 -25 37 -53q-107 -61 -168 -95q-14 18 -23 34q123 91 154 114z" />
    <glyph glyph-name="Ocircumflex" unicode="&#xd4;" horiz-adv-x="718" 
d="M346 -10q-125 0 -207 84q-89 89 -89 246q0 92 39.5 167.5t99.5 116.5q83 56 189 56q97 0 168 -50q55 -39 88.5 -109.5t33.5 -155.5q0 -171 -104 -274q-84 -81 -218 -81zM361 40q95 0 149 62q72 85 72 222q0 145 -71 225q-57 61 -145 61q-84 0 -142 -52q-88 -80 -88 -232
q0 -146 74 -224q58 -62 151 -62zM375 779q-55 -36 -111 -73q-13 13 -26 31q56 46 119 99q11 1 35 1q18 -14 58.5 -48.5t59.5 -49.5q-11 -16 -26 -32q-12 8 -109 72z" />
    <glyph glyph-name="Otilde" unicode="&#xd5;" horiz-adv-x="718" 
d="M346 -10q-125 0 -207 84q-89 89 -89 246q0 92 39.5 167.5t99.5 116.5q83 56 189 56q97 0 168 -50q55 -39 88.5 -109.5t33.5 -155.5q0 -171 -104 -274q-84 -81 -218 -81zM361 40q95 0 149 62q72 85 72 222q0 145 -71 225q-57 61 -145 61q-84 0 -142 -52q-88 -80 -88 -232
q0 -146 74 -224q58 -62 151 -62zM318 814q30 0 70 -26q38 -21 53 -21q30 0 34 45h39q0 -38 -20.5 -68.5t-56.5 -30.5q-19 0 -64 25q-40 23 -59 23q-13 0 -23.5 -12t-13.5 -31h-11.5h-14.5h-12q1 38 23.5 67t55.5 29z" />
    <glyph glyph-name="Odieresis" unicode="&#xd6;" horiz-adv-x="718" 
d="M346 -10q-125 0 -207 84q-89 89 -89 246q0 92 39.5 167.5t99.5 116.5q83 56 189 56q97 0 168 -50q55 -39 88.5 -109.5t33.5 -155.5q0 -171 -104 -274q-84 -81 -218 -81zM361 40q95 0 149 62q72 85 72 222q0 145 -71 225q-57 61 -145 61q-84 0 -142 -52q-88 -80 -88 -232
q0 -146 74 -224q58 -62 151 -62zM294 806q20 0 30.5 -14t10.5 -31q0 -16 -11.5 -29t-30.5 -13t-31.5 12t-12.5 31q0 17 11.5 30.5t33.5 13.5zM464 806q20 0 31 -13.5t11 -30.5q0 -18 -12 -30.5t-29 -12.5q-21 0 -33.5 13t-12.5 29q0 17 11 31t34 14z" />
    <glyph glyph-name="multiply" unicode="&#xd7;" horiz-adv-x="524" 
d="M301 231q110 -112 158 -162q-13 -16 -37 -36q-25 26 -79 80t-80 81q-54 -55 -160 -161q-22 20 -36 37q60 61 158 161q-103 105 -150 151q20 23 41 41q105 -108 147 -151q25 26 76 78t74 76q21 -16 42 -41q-74 -72 -154 -154z" />
    <glyph glyph-name="Oslash" unicode="&#xd8;" horiz-adv-x="718" 
d="M382 660q102 0 177 -62q44 52 66 77q19 -12 42 -35q-11 -12 -34 -39t-36 -41q31 -37 51 -95.5t20 -120.5q0 -166 -100 -269q-85 -85 -221 -85q-109 0 -183 61q-13 -15 -38.5 -44t-36.5 -41q-19 15 -37 31q24 29 77 88q-79 88 -79 232q0 95 39.5 171t104.5 119
q78 53 188 53zM363 610q-89 0 -146 -58q-84 -84 -84 -227q0 -121 46 -186q79 97 167 201q13 16 170 205q-55 65 -153 65zM361 40q97 0 151 63q72 85 72 229q0 106 -40 170q-35 -41 -93 -110.5t-76 -90.5q-124 -147 -167 -199q57 -62 153 -62z" />
    <glyph glyph-name="Ugrave" unicode="&#xd9;" horiz-adv-x="669" 
d="M185 600l-2 -329q-1 -70 9 -108t32 -66q40 -53 119 -53q72 0 116 46q49 51 49 176q0 228 -1 330q0 4 -4 4l-83 2q0 32 1 47h116h104q0 -30 -1 -46l-64 -3l-2 -335q-1 -140 -70 -213q-60 -62 -164 -62q-112 0 -171 58q-40 38 -53 88.5t-13 126.5v332q0 6 -5 6l-61 2
q0 32 1 46h108q23 0 66 0.5t62 0.5q0 -32 -1 -47zM277 849q29 -21 90.5 -67t63.5 -47q-9 -17 -23 -34q-20 12 -79.5 45.5t-88.5 49.5q16 29 37 53z" />
    <glyph glyph-name="Uacute" unicode="&#xda;" horiz-adv-x="669" 
d="M185 600l-2 -329q-1 -70 9 -108t32 -66q40 -53 119 -53q72 0 116 46q49 51 49 176q0 228 -1 330q0 4 -4 4l-83 2q0 32 1 47h116h104q0 -30 -1 -46l-64 -3l-2 -335q-1 -140 -70 -213q-60 -62 -164 -62q-112 0 -171 58q-40 38 -53 88.5t-13 126.5v332q0 6 -5 6l-61 2
q0 32 1 46h108q23 0 66 0.5t62 0.5q0 -32 -1 -47zM447 849q21 -25 37 -53q-150 -85 -168 -95q-13 16 -23 33q110 81 154 115z" />
    <glyph glyph-name="Ucircumflex" unicode="&#xdb;" horiz-adv-x="669" 
d="M185 600l-2 -329q-1 -70 9 -108t32 -66q40 -53 119 -53q72 0 116 46q49 51 49 176q0 228 -1 330q0 4 -4 4l-83 2q0 32 1 47h116h104q0 -30 -1 -46l-64 -3l-2 -335q-1 -140 -70 -213q-60 -62 -164 -62q-112 0 -171 58q-40 38 -53 88.5t-13 126.5v332q0 6 -5 6l-61 2
q0 32 1 46h108q23 0 66 0.5t62 0.5q0 -32 -1 -47zM354 778q-18 -12 -56.5 -37t-54.5 -36q-13 13 -26 31q49 39 120 99q11 1 35 1q15 -12 118 -98q-9 -14 -27 -32q-49 33 -109 72z" />
    <glyph glyph-name="Udieresis" unicode="&#xdc;" horiz-adv-x="669" 
d="M185 600l-2 -329q-1 -70 9 -108t32 -66q40 -53 119 -53q72 0 116 46q49 51 49 176q0 228 -1 330q0 4 -4 4l-83 2q0 32 1 47h116h104q0 -30 -1 -46l-64 -3l-2 -335q-1 -140 -70 -213q-60 -62 -164 -62q-112 0 -171 58q-40 38 -53 88.5t-13 126.5v332q0 6 -5 6l-61 2
q0 32 1 46h108q23 0 66 0.5t62 0.5q0 -32 -1 -47zM272 806q20 0 30.5 -14t10.5 -31q0 -16 -11.5 -29t-30.5 -13t-31.5 12t-12.5 31q0 17 11.5 30.5t33.5 13.5zM441 806q20 0 31 -13.5t11 -30.5q0 -18 -12 -30.5t-29 -12.5q-21 0 -33.5 13t-12.5 29q0 17 11 31t34 14z" />
    <glyph glyph-name="Yacute" unicode="&#xdd;" horiz-adv-x="562" 
d="M160 47l79 2q5 1 5 6v196q-20 35 -193 347q-3 3 -5 4l-52 2q0 32 1 47q13 0 47 -0.5t51 -0.5q26 0 73.5 0.5t67.5 0.5q0 -32 -1 -47l-90 -3q55 -109 152 -292h5q100 181 148 288q2 4 -3 4l-81 3q0 31 1 46h124q14 0 44 0.5t42 0.5q0 -31 -1 -46l-51 -4q-31 -53 -100 -174
t-100 -174l-1 -203l92 -3q0 -17 -2 -47q-17 0 -60.5 0.5t-65.5 0.5q-21 0 -64 -0.5t-63 -0.5q0 31 1 47zM415 850q21 -26 37 -53q-22 -13 -81.5 -46.5t-86.5 -48.5q-14 18 -23 34q25 18 79 58.5t75 55.5z" />
    <glyph glyph-name="Thorn" unicode="&#xde;" horiz-adv-x="555" 
d="M123 54v547l-69 2q0 31 1 47h113h117q0 -31 -1 -45l-78 -3q-4 0 -4 -4v-72q15 1 46 1q82 0 135 -16q60 -18 95 -63.5t35 -100.5q0 -63 -34 -112t-82 -70q-58 -27 -138 -27h-59v-88l96 -3q1 -16 -1 -46h-134q-17 0 -53.5 -0.5t-53.5 -0.5v47l65 3q4 0 4 4zM202 475
l-1 -281q5 -9 55 -9q68 0 115 28q60 40 60 122q0 70 -48 107t-134 37q-38 0 -47 -4z" />
    <glyph glyph-name="germandbls" unicode="&#xdf;" horiz-adv-x="580" 
d="M26 415l68 2q5 0 5 7q0 79 13 121t50 77q66 61 151 61q59 0 100 -38q58 -54 49 -176q-50 -36 -64 -49q-41 -34 -41 -68q0 -32 16 -47t62 -35q59 -24 83 -55.5t24 -76.5q0 -75 -60 -117q-42 -31 -123 -31q-51 0 -89 12q-2 21 -6.5 60.5t-6.5 56.5q28 5 50 8l12 -64
q3 -10 9 -13q22 -12 48 -12q42 0 66 19q26 23 26 62q0 37 -16.5 56t-69.5 41q-52 22 -73 50t-21 70q0 20 11.5 42t19 30t26.5 28l44 44q6 88 -36 128q-25 22 -63 22q-52 0 -85 -39q-18 -21 -23.5 -58t-6.5 -115q0 -50 -0.5 -181t-0.5 -190l35 -2q0 -30 -1 -44h-71
q-15 0 -49.5 -0.5t-50.5 -0.5q0 8 0.5 22t0.5 21l58 4q3 0 3 4v315h-75q0 19 2 49z" />
    <glyph glyph-name="agrave" unicode="&#xe0;" horiz-adv-x="454" 
d="M293 35h-5q-88 -45 -146 -45q-40 0 -76.5 29t-36.5 69q0 49 51.5 92t143.5 42h68q3 79 -16.5 114t-66.5 35q-58 0 -120 -67q-21 21 -34 38q86 88 178 88q59 0 96.5 -41t37.5 -121q0 -126 -2 -210q0 -15 9 -15l67 2v-42q-45 -13 -115 -13q-9 8 -33 45zM110 96
q0 -23 19 -38t48 -15q53 0 111 40q3 2 3 9v85q-10 2 -56 2q-63 0 -94 -23t-31 -60zM154 640q21 -21 67 -67.5t66 -66.5q-15 -19 -29 -31q-133 110 -148 121q15 17 44 44z" />
    <glyph glyph-name="aacute" unicode="&#xe1;" horiz-adv-x="454" 
d="M293 35h-5q-88 -45 -146 -45q-40 0 -76.5 29t-36.5 69q0 49 51.5 92t143.5 42h68q3 79 -16.5 114t-66.5 35q-58 0 -120 -67q-21 21 -34 38q86 88 178 88q59 0 96.5 -41t37.5 -121q0 -126 -2 -210q0 -15 9 -15l67 2v-42q-45 -13 -115 -13q-9 8 -33 45zM110 96
q0 -23 19 -38t48 -15q53 0 111 40q3 2 3 9v85q-10 2 -56 2q-63 0 -94 -23t-31 -60zM304 640q16 -13 43 -44q-22 -17 -73.5 -59t-76.5 -62q-3 3 -8.5 9.5t-10.5 11.5t-9 10q22 21 68 67.5t67 66.5z" />
    <glyph glyph-name="acircumflex" unicode="&#xe2;" horiz-adv-x="454" 
d="M293 35h-5q-88 -45 -146 -45q-40 0 -76.5 29t-36.5 69q0 49 51.5 92t143.5 42h68q3 79 -16.5 114t-66.5 35q-58 0 -120 -67q-21 21 -34 38q86 88 178 88q59 0 96.5 -41t37.5 -121q0 -126 -2 -210q0 -15 9 -15l67 2v-42q-45 -13 -115 -13q-9 8 -33 45zM110 96
q0 -23 19 -38t48 -15q53 0 111 40q3 2 3 9v85q-10 2 -56 2q-63 0 -94 -23t-31 -60zM219 562q-29 -27 -94 -92q-20 18 -29 26q33 41 105 124q12 1 37 1q14 -16 50.5 -60t53.5 -64q-19 -19 -29 -27q-63 63 -94 92z" />
    <glyph glyph-name="atilde" unicode="&#xe3;" horiz-adv-x="454" 
d="M293 35h-5q-88 -45 -146 -45q-40 0 -76.5 29t-36.5 69q0 49 51.5 92t143.5 42h68q3 79 -16.5 114t-66.5 35q-58 0 -120 -67q-21 21 -34 38q86 88 178 88q59 0 96.5 -41t37.5 -121q0 -126 -2 -210q0 -15 9 -15l67 2v-42q-45 -13 -115 -13q-9 8 -33 45zM110 96
q0 -23 19 -38t48 -15q53 0 111 40q3 2 3 9v85q-10 2 -56 2q-63 0 -94 -23t-31 -60zM161 594q7 0 14 -1.5t11.5 -3t11.5 -6t9.5 -6t10 -7.5t9.5 -7q4 -3 11.5 -8.5t11 -8t10 -5t13.5 -2.5q15 0 21.5 12.5t9.5 38.5h11.5h14h11.5q-6 -102 -68 -102q-25 0 -63 30q-4 3 -10.5 8
t-10.5 7t-9.5 5t-10.5 4.5t-11 1.5q-23 0 -33 -50h-37q3 43 21 71t52 29z" />
    <glyph glyph-name="adieresis" unicode="&#xe4;" horiz-adv-x="454" 
d="M293 35h-5q-88 -45 -146 -45q-40 0 -76.5 29t-36.5 69q0 49 51.5 92t143.5 42h68q3 79 -16.5 114t-66.5 35q-58 0 -120 -67q-21 21 -34 38q86 88 178 88q59 0 96.5 -41t37.5 -121q0 -126 -2 -210q0 -15 9 -15l67 2v-42q-45 -13 -115 -13q-9 8 -33 45zM110 96
q0 -23 19 -38t48 -15q53 0 111 40q3 2 3 9v85q-10 2 -56 2q-63 0 -94 -23t-31 -60zM137 579q22 0 32 -13.5t10 -30.5q0 -16 -11.5 -29t-30.5 -13t-31.5 12t-12.5 31q0 16 11.5 29.5t32.5 13.5zM295 579q19 0 30 -13.5t11 -29.5q0 -19 -12 -31t-31 -12q-20 0 -31.5 13
t-11.5 29q0 17 10.5 30.5t34.5 13.5z" />
    <glyph glyph-name="aring" unicode="&#xe5;" horiz-adv-x="454" 
d="M293 35h-5q-86 -45 -146 -45q-40 0 -76.5 29t-36.5 69q0 49 51.5 92t143.5 42h68q3 79 -16.5 114t-65.5 35q-57 0 -119 -67q-20 18 -35 38q88 88 177 88q59 0 96.5 -41t37.5 -121q0 -126 -2 -210q0 -15 9 -15l67 2v-42q-45 -13 -115 -13q-9 8 -33 45zM110 96
q0 -23 19 -38t48 -15q53 0 111 40q3 2 3 9v85q-10 2 -56 2q-63 0 -94 -23t-31 -60zM220 654q42 0 67.5 -23.5t25.5 -59.5t-26.5 -61t-67.5 -25q-40 0 -67.5 23.5t-27.5 60.5q0 32 27.5 58.5t68.5 26.5zM219 618q-22 0 -35 -14.5t-13 -34.5t14 -34t35 -14q23 0 34.5 14
t11.5 35t-12 34.5t-35 13.5z" />
    <glyph glyph-name="ae" unicode="&#xe6;" horiz-adv-x="690" 
d="M330 55h-6q-101 -65 -184 -65q-37 0 -74 29t-37 67q0 50 51.5 93.5t142.5 42.5h70q2 79 -17.5 114t-64.5 35q-61 0 -121 -67q-13 13 -35 37q42 41 82.5 65t90.5 24q87 0 111 -83h5q53 83 154 83q77 0 117 -51q39 -48 39 -131q-4 -10 -15.5 -22.5t-18.5 -13.5
q-88 -3 -253 -3q-1 -83 33 -125q33 -39 103 -39q52 0 132 32q5 -19 11 -45q-84 -42 -158 -42q-107 0 -158 65zM484 383q-44 0 -72 -30q-39 -42 -42 -98q109 0 196 3q12 0 12 11q0 52 -27 84q-25 30 -67 30zM177 42q62 0 127 47q4 3 3 7q-12 33 -15 81q-10 2 -56 2
q-63 0 -94 -23t-31 -59q0 -24 18.5 -39.5t47.5 -15.5z" />
    <glyph glyph-name="ccedilla" unicode="&#xe7;" horiz-adv-x="403" 
d="M150 -71l64 62h-5q-25 0 -52.5 11t-54.5 32.5t-44.5 60.5t-17.5 89q0 108 68 177t174 69q60 0 92 -21q0 -11 -11.5 -33.5t-20.5 -27.5l-16 7q-17 7 -36.5 12t-37.5 5q-54 0 -86 -37q-45 -51 -45 -131q0 -79 36 -122q31 -37 91 -37q47 0 124 28q7 -24 10 -44
q-55 -25 -113 -35l-55 -56q27 -5 42 -22t15 -41q0 -37 -34.5 -60t-91.5 -24q-2 8 -4 34q73 5 73 43q0 18 -13 29q-12 11 -42 11z" />
    <glyph glyph-name="egrave" unicode="&#xe8;" horiz-adv-x="445" 
d="M40 192q0 100 59 169t154 69q77 0 118 -51q38 -48 38 -131q-4 -10 -15.5 -22.5t-18.5 -13.5q-88 -3 -254 -3q-2 -83 33 -124q35 -40 103 -40q53 0 133 32q8 -21 11 -45q-86 -42 -159 -42q-95 0 -148.5 56t-53.5 146zM241 383q-47 0 -74 -30q-39 -48 -42 -98q109 0 195 3
q13 0 13 11q0 52 -27 84q-24 30 -65 30zM187 641q24 -24 71 -72t62 -63q-13 -16 -28 -31q-19 16 -70.5 58t-77.5 63q17 21 43 45z" />
    <glyph glyph-name="eacute" unicode="&#xe9;" horiz-adv-x="445" 
d="M40 192q0 100 59 169t154 69q77 0 118 -51q38 -48 38 -131q-4 -10 -15.5 -22.5t-18.5 -13.5q-88 -3 -254 -3q-2 -83 33 -124q35 -40 103 -40q53 0 133 32q8 -21 11 -45q-86 -42 -159 -42q-95 0 -148.5 56t-53.5 146zM241 383q-47 0 -74 -30q-39 -48 -42 -98q109 0 195 3
q13 0 13 11q0 52 -27 84q-24 30 -65 30zM317 640q19 -14 43 -44q-16 -13 -150 -121q-18 20 -28 31l67.5 67.5t67.5 66.5z" />
    <glyph glyph-name="ecircumflex" unicode="&#xea;" horiz-adv-x="445" 
d="M40 192q0 100 59 169t154 69q77 0 118 -51q38 -48 38 -131q-4 -10 -15.5 -22.5t-18.5 -13.5q-88 -3 -254 -3q-2 -83 33 -124q35 -40 103 -40q53 0 133 32q8 -21 11 -45q-86 -42 -159 -42q-95 0 -148.5 56t-53.5 146zM241 383q-47 0 -74 -30q-39 -48 -42 -98q109 0 195 3
q13 0 13 11q0 52 -27 84q-24 30 -65 30zM249 562q-14 -14 -47 -46t-47 -45q-15 12 -29 26q12 14 34 40t39.5 46.5t31.5 36.5q12 1 37 1q5 -6 104 -124q-9 -9 -29 -27q-63 63 -94 92z" />
    <glyph glyph-name="edieresis" unicode="&#xeb;" horiz-adv-x="445" 
d="M40 192q0 100 59 169t154 69q77 0 118 -51q38 -48 38 -131q-4 -10 -15.5 -22.5t-18.5 -13.5q-88 -3 -254 -3q-2 -83 33 -124q35 -40 103 -40q55 0 133 32q6 -17 12 -45q-87 -42 -160 -42q-95 0 -148.5 56t-53.5 146zM241 383q-47 0 -74 -30q-39 -48 -42 -98q109 0 195 3
q13 0 13 11q0 52 -27 84q-24 30 -65 30zM170 579q22 0 32 -13.5t10 -30.5q0 -16 -11.5 -29t-30.5 -13t-31.5 12t-12.5 31q0 16 11.5 29.5t32.5 13.5zM329 579q19 0 30 -13.5t11 -29.5q0 -19 -12 -31t-31 -12q-20 0 -31.5 13t-11.5 29q0 17 10.5 30.5t34.5 13.5z" />
    <glyph glyph-name="igrave" unicode="&#xec;" horiz-adv-x="266" 
d="M102 361l-77 2v42q18 2 55 8.5t65.5 11.5t31.5 5q2 0 2 -3q0 -55 -1 -191t-1 -189l70 -3q0 -29 -1 -43h-111q-17 0 -52.5 -0.5t-51.5 -0.5v44l67 3q4 0 4 4v310zM56 640q24 -23 70.5 -71t61.5 -63q-15 -19 -29 -31q-15 12 -45 37t-55.5 46t-46.5 38q15 17 44 44z" />
    <glyph glyph-name="iacute" unicode="&#xed;" horiz-adv-x="266" 
d="M102 361l-77 2v42q18 2 55 8.5t65.5 11.5t31.5 5q2 0 2 -3q0 -55 -1 -191t-1 -189l70 -3q0 -29 -1 -43h-111q-17 0 -52.5 -0.5t-51.5 -0.5v44l67 3q4 0 4 4v310zM201 640q22 -18 43 -44q-147 -119 -149 -121q-18 20 -28 31l42 42l51 51z" />
    <glyph glyph-name="icircumflex" unicode="&#xee;" horiz-adv-x="266" 
d="M102 361l-77 2v42q18 2 55 8.5t65.5 11.5t31.5 5q2 0 2 -3q0 -55 -1 -191t-1 -189l70 -3q0 -29 -1 -43h-111q-17 0 -52.5 -0.5t-51.5 -0.5v44l67 3q4 0 4 4v310zM133 562q-28 -27 -93 -92q-9 8 -30 26q59 71 105 124q12 1 36 1q17 -19 54 -63.5t51 -60.5q-19 -19 -30 -27
q-29 30 -93 92z" />
    <glyph glyph-name="idieresis" unicode="&#xef;" horiz-adv-x="266" 
d="M102 361l-77 2v42q18 2 55 8.5t65.5 11.5t31.5 5q2 0 2 -3q0 -55 -1 -191t-1 -189l70 -3q0 -29 -1 -43h-111q-17 0 -52.5 -0.5t-51.5 -0.5v44l67 3q4 0 4 4v310zM51 579q22 0 32 -13.5t10 -30.5q0 -16 -11.5 -29t-30.5 -13t-31.5 12t-12.5 31q0 16 11.5 29.5t32.5 13.5z
M208 579q19 0 30.5 -13.5t11.5 -29.5q0 -19 -12 -31t-31 -12q-20 0 -31.5 13t-11.5 29q0 17 10.5 30.5t33.5 13.5z" />
    <glyph glyph-name="eth" unicode="&#xf0;" horiz-adv-x="501" 
d="M369 379l7 3q-29 108 -91 170q-64 -48 -101 -76q-10 12 -28 36q56 41 94 71q-56 50 -150 62q5 27 10 42q54 -2 105 -21.5t83 -44.5q8 6 40.5 31t51.5 39q15 -18 27 -37l-84 -63q53 -49 88.5 -130t35.5 -174q0 -162 -77 -240q-57 -57 -145 -57q-73 0 -119 38
q-34 27 -53.5 70t-19.5 92q0 103 72 171q59 57 142 57q67 0 112 -39zM244 34q56 0 90 46q46 60 46 173q0 57 -17 76q-41 43 -109 43q-55 0 -92 -45q-38 -46 -38 -128q0 -97 50 -140q30 -25 70 -25z" />
    <glyph glyph-name="ntilde" unicode="&#xf1;" horiz-adv-x="558" 
d="M101 360l-77 2q0 6 0.5 20t0.5 21q17 3 50.5 9.5t59 11.5t28.5 5q2 0 2 -3q5 -29 11 -59l5 -1q70 42 99.5 53t64.5 11q68 0 106 -68q20 -32 20 -73q0 -17 -3 -242l64 -3q0 -29 -1 -43q-16 0 -51.5 -0.5t-53.5 -0.5q-16 0 -49 -0.5t-47 -0.5q0 30 1 44l58 3q3 2 3 4
q1 54 1 181q0 78 -13 101q-21 38 -68 38q-27 0 -64.5 -17t-68.5 -42q-2 -150 -2 -264l72 -3q0 -7 -0.5 -22t-0.5 -22q-16 0 -54.5 0.5t-58.5 0.5q-16 0 -49 -0.5t-48 -0.5q0 29 1 44l59 3q4 0 4 3zM231 594q9 0 16 -1.5t15 -6t11.5 -6.5t13 -9t10.5 -8q4 -2 9.5 -6.5t9 -7
t8 -5.5t9.5 -4t10 -1q15 0 21.5 12.5t9.5 38.5h37q-6 -102 -68 -102q-25 0 -63 30q-4 3 -10.5 8t-10.5 7t-9.5 5t-10.5 4.5t-11 1.5q-23 0 -33 -50h-37q3 43 21 71t52 29z" />
    <glyph glyph-name="ograve" unicode="&#xf2;" horiz-adv-x="505" 
d="M244 -10q-85 0 -137 47q-66 61 -66 165q0 113 84 183q57 45 137 45q75 0 124 -37q78 -59 78 -173q0 -120 -86 -188q-53 -42 -134 -42zM252 34q51 0 83 33q45 49 45 149q0 88 -40 132q-34 38 -85 38t-84 -34q-46 -47 -46 -143q0 -95 47 -142q30 -33 80 -33zM195 640
q24 -23 70.5 -71t61.5 -63q-8 -11 -28 -31q-15 12 -45 37t-55.5 46t-46.5 38q19 24 43 44z" />
    <glyph glyph-name="oacute" unicode="&#xf3;" horiz-adv-x="505" 
d="M244 -10q-85 0 -137 47q-66 61 -66 165q0 113 84 183q57 45 137 45q75 0 124 -37q78 -59 78 -173q0 -120 -86 -188q-53 -42 -134 -42zM252 34q51 0 83 33q45 49 45 149q0 88 -40 132q-34 38 -85 38t-84 -34q-46 -47 -46 -143q0 -95 47 -142q30 -33 80 -33zM337 640
q21 -16 44 -44q-8 -6 -150 -121q-3 3 -8.5 9.5t-10.5 11.5t-9 10l42 42l51 51z" />
    <glyph glyph-name="ocircumflex" unicode="&#xf4;" horiz-adv-x="505" 
d="M244 -10q-85 0 -137 47q-66 61 -66 165q0 113 84 183q57 45 137 45q75 0 124 -37q78 -59 78 -173q0 -120 -86 -188q-53 -42 -134 -42zM252 34q51 0 83 33q45 49 45 149q0 88 -40 132q-34 38 -85 38t-84 -34q-46 -47 -46 -143q0 -95 47 -142q30 -33 80 -33zM264 562
q-29 -27 -94 -92q-20 18 -29 27q12 14 34 40t39.5 46.5t31.5 36.5q12 1 36 1q17 -19 54 -63.5t51 -60.5q-13 -13 -30 -27q-29 30 -93 92z" />
    <glyph glyph-name="otilde" unicode="&#xf5;" horiz-adv-x="505" 
d="M244 -10q-85 0 -137 47q-66 61 -66 165q0 113 84 183q57 45 137 45q75 0 124 -37q78 -59 78 -173q0 -120 -86 -188q-53 -42 -134 -42zM252 34q51 0 83 33q45 49 45 149q0 88 -40 132q-34 38 -85 38t-84 -34q-46 -47 -46 -143q0 -95 47 -142q30 -33 80 -33zM210 594
q9 0 16 -1.5t15 -6t11.5 -6.5t13 -9t10.5 -8q4 -2 9.5 -6.5t9 -7t8 -5.5t9.5 -4t10 -1q15 0 21.5 12.5t9.5 38.5h37q-6 -102 -68 -102q-25 0 -63 30q-4 3 -10.5 8t-10.5 7t-9.5 5t-10.5 4.5t-11 1.5q-23 0 -33 -50h-37q3 43 21 71t52 29z" />
    <glyph glyph-name="odieresis" unicode="&#xf6;" horiz-adv-x="505" 
d="M244 -10q-85 0 -137 47q-66 61 -66 165q0 113 84 183q57 45 137 45q75 0 124 -37q78 -59 78 -173q0 -120 -86 -188q-53 -42 -134 -42zM252 34q51 0 83 33q45 49 45 149q0 88 -40 132q-34 38 -85 38t-84 -34q-46 -47 -46 -143q0 -95 47 -142q30 -33 80 -33zM183 579
q22 0 32 -13.5t10 -30.5q0 -16 -11.5 -29t-30.5 -13t-31.5 12t-12.5 31q0 16 11.5 29.5t32.5 13.5zM341 579q19 0 30 -13.5t11 -29.5q0 -19 -12 -31t-31 -12q-20 0 -31.5 13t-11.5 29q0 17 10.5 30.5t34.5 13.5z" />
    <glyph glyph-name="divide" unicode="&#xf7;" horiz-adv-x="524" 
d="M215 379q0 19 13.5 33.5t34.5 14.5t33.5 -14t12.5 -34q0 -19 -12.5 -34.5t-32.5 -15.5q-24 0 -36.5 15.5t-12.5 34.5zM460 210h-397q0 36 2 53q65 1 203 2t195 1q0 -30 -3 -56zM215 100q0 18 13.5 32.5t35.5 14.5q20 0 32.5 -14.5t12.5 -36.5q0 -17 -12.5 -32t-33.5 -15
q-23 0 -35.5 15.5t-12.5 35.5z" />
    <glyph glyph-name="oslash" unicode="&#xf8;" horiz-adv-x="505" 
d="M262 430q69 0 118 -35q50 60 54 65q13 -9 36 -32q-15 -16 -54 -64q48 -55 48 -143q0 -126 -91 -193q-52 -38 -129 -38q-68 0 -117 32q-29 -35 -59 -68q-17 14 -32 29q6 7 26 31t31 38q-53 58 -53 149q0 117 85 184q58 45 137 45zM254 386q-51 0 -86 -35q-48 -49 -48 -142
q0 -68 23 -104q26 33 198 244q-30 37 -87 37zM252 34q51 0 83 32q49 49 49 147q0 64 -20 96q-38 -47 -108 -131.5t-90 -108.5q32 -35 86 -35z" />
    <glyph glyph-name="ugrave" unicode="&#xf9;" horiz-adv-x="528" 
d="M366 43l-5 1q-61 -36 -88 -45t-61 -9q-50 0 -89.5 42.5t-39.5 94.5q0 45 0.5 126.5t0.5 115.5l-61 1q0 16 2 46q12 0 45.5 1t59 2t30.5 1q3 0 3 -3q-3 -114 -3 -239q0 -72 15 -96q23 -36 69 -36q50 0 118 50v86v106.5v80.5l-64 2q0 32 1 47q21 0 78 1t61 1q2 0 2 -3
q0 -56 -1 -177t-1 -180q0 -14 7 -14l67 1q0 -29 -1 -42q-45 -15 -113 -15q-16 16 -32 53zM185 640q10 -10 59.5 -60.5t73.5 -73.5q-15 -19 -29 -31q-15 12 -45 37t-55.5 46t-46.5 38q13 17 43 44z" />
    <glyph glyph-name="uacute" unicode="&#xfa;" horiz-adv-x="528" 
d="M366 43l-5 1q-61 -36 -88 -45t-61 -9q-50 0 -89.5 42.5t-39.5 94.5q0 45 0.5 126.5t0.5 115.5l-61 1q0 16 2 46q12 0 45.5 1t59 2t30.5 1q3 0 3 -3q-3 -114 -3 -239q0 -72 15 -96q23 -36 69 -36q50 0 118 50v86v106.5v80.5l-64 2q0 32 1 47q21 0 78 1t61 1q2 0 2 -3
q0 -56 -1 -177t-1 -180q0 -14 7 -14l67 1q0 -29 -1 -42q-45 -15 -113 -15q-16 16 -32 53zM329 640q22 -18 43 -44q-141 -115 -149 -121q-10 9 -28 31z" />
    <glyph glyph-name="ucircumflex" unicode="&#xfb;" horiz-adv-x="528" 
d="M366 43l-5 1q-61 -36 -88 -45t-61 -9q-50 0 -89.5 42.5t-39.5 94.5q0 45 0.5 126.5t0.5 115.5l-61 1q0 16 2 46q12 0 45.5 1t59 2t30.5 1q3 0 3 -3q-3 -114 -3 -239q0 -72 15 -96q23 -36 69 -36q50 0 118 50v86v106.5v80.5l-64 2q0 32 1 47q21 0 78 1t61 1q2 0 2 -3
q0 -56 -1 -177t-1 -180q0 -14 7 -14l67 1q0 -29 -1 -42q-45 -15 -113 -15q-16 16 -32 53zM258 562q-29 -27 -94 -92q-1 1 -12.5 11t-16.5 15q33 41 105 124q12 1 36 1q17 -19 54 -63.5t51 -60.5q-19 -19 -29 -27q-34 34 -94 92z" />
    <glyph glyph-name="udieresis" unicode="&#xfc;" horiz-adv-x="528" 
d="M366 43l-5 1q-61 -36 -88 -45t-61 -9q-50 0 -89.5 42.5t-39.5 94.5q0 45 0.5 126.5t0.5 115.5l-61 1q0 16 2 46q12 0 45.5 1t59 2t30.5 1q3 0 3 -3q-3 -114 -3 -239q0 -72 15 -96q23 -36 69 -36q50 0 118 50v86v106.5v80.5l-64 2q0 32 1 47q21 0 78 1t61 1q2 0 2 -3
q0 -56 -1 -177t-1 -180q0 -14 7 -14l67 1q0 -29 -1 -42q-45 -15 -113 -15q-16 16 -32 53zM179 579q22 0 32 -13.5t10 -30.5q0 -16 -11.5 -29t-30.5 -13t-31.5 12t-12.5 31q0 16 11.5 29.5t32.5 13.5zM337 579q19 0 30 -13.5t11 -29.5q0 -19 -12 -31t-31 -12q-20 0 -31.5 13
t-11.5 29q0 17 10.5 30.5t34.5 13.5z" />
    <glyph glyph-name="yacute" unicode="&#xfd;" horiz-adv-x="462" 
d="M466 376l-44 -3q-8 -20 -82 -201q-93 -221 -158 -319q-52 -78 -86 -98q-13 0 -37.5 17t-24.5 27q54 37 89 80q49 57 76 119q-43 103 -86 217q-10 27 -29.5 80t-28.5 75q-1 3 -5 3l-49 3q0 31 1 44h86h121q0 -30 -1 -44l-70 -2q14 -48 45 -139q30 -86 57 -159h5
q32 77 55 140q19 52 51 152q2 5 -3 5l-61 3q0 30 1 43q14 0 49 0.5t52 0.5h78q0 -29 -1 -44zM328 640q16 -12 43 -43q-36 -29 -149 -122q-3 3 -8.5 9.5t-10.5 11.5t-9 10l42 42t50.5 51t41.5 41z" />
    <glyph glyph-name="thorn" unicode="&#xfe;" horiz-adv-x="513" 
d="M152 377l5 -1q64 35 92 44.5t61 9.5q71 0 116.5 -58.5t45.5 -128.5q0 -74 -23 -126q-25 -58 -74 -93q-45 -34 -117 -34q-54 0 -102 23l-5 -2q1 -56 1 -192l91 -2q0 -15 -2 -43q-85 0 -127 -1q-70 0 -100 -1q0 29 1 43l58 4q4 0 4 5v739l-77 1q0 28 1 41q16 2 53 9
t66 12.5t33 5.5q2 0 2 -3q0 -57 -3 -252zM390 216q0 62 -21 102q-28 51 -89 51t-125 -47q-2 -150 -2 -233q0 -17 33 -34t68 -17q56 0 87 33q49 52 49 145z" />
    <glyph glyph-name="ydieresis" unicode="&#xff;" horiz-adv-x="462" 
d="M466 376l-44 -3q-8 -20 -82 -201q-93 -221 -158 -319q-52 -78 -86 -98q-13 0 -37.5 17t-24.5 27q54 37 89 80q49 57 76 119q-43 103 -86 217q-10 27 -29.5 80t-28.5 75q-1 3 -5 3l-49 3q0 31 1 44h86h121q0 -16 -2 -44l-70 -2q9 -31 46 -139q25 -76 56 -159h6
q32 77 55 140q19 52 51 152q2 5 -3 5l-61 3q0 30 1 43q14 0 49 0.5t52 0.5h78q0 -29 -1 -44zM163 579q22 0 32 -13.5t10 -30.5q0 -16 -11.5 -29t-30.5 -13t-31.5 12t-12.5 31q0 16 11.5 29.5t32.5 13.5zM321 579q19 0 30 -13.5t11 -29.5q0 -19 -12 -31t-31 -12
q-20 0 -31.5 13t-11.5 29q0 17 10.5 30.5t34.5 13.5z" />
    <glyph glyph-name="Amacron" unicode="&#x100;" horiz-adv-x="606" 
d="M-13 46l56 3q4 2 5 5q34 87 231 605q12 1 55 1q39 -105 121.5 -336t97.5 -274l61 -3q0 -32 -1 -46h-94q-24 0 -68.5 -0.5t-63.5 -0.5q0 8 0.5 23t0.5 23l78 3q4 0 2 5q-40 116 -51 144q-1 5 -7 5l-239 -1q-43 -122 -53 -152l90 -3q0 -31 -1 -46h-133q-15 0 -45 -0.5
t-43 -0.5q0 31 1 46zM299 548h-4q-18 -48 -54.5 -149t-51.5 -143q-3 -6 2 -6h210q-25 75 -102 298zM416 785q2 -25 0 -49q-33 0 -110 0.5t-115 0.5q-2 22 0 46q38 1 112.5 1.5t112.5 0.5z" />
    <glyph glyph-name="amacron" unicode="&#x101;" horiz-adv-x="454" 
d="M293 35h-5q-88 -45 -146 -45q-40 0 -76.5 29t-36.5 69q0 49 51.5 92t143.5 42h68q3 79 -16.5 114t-66.5 35q-58 0 -120 -67q-21 21 -34 38q86 88 178 88q59 0 96.5 -41t37.5 -121q0 -126 -2 -210q0 -15 9 -15l67 2v-42q-45 -13 -115 -13q-9 8 -33 45zM110 96
q0 -23 19 -38t48 -15q53 0 111 40q3 2 3 9v85q-10 2 -56 2q-63 0 -94 -23t-31 -60zM328 555q2 -23 0 -48q-28 0 -98 0.5t-103 0.5q-2 22 0 45q134 2 201 2z" />
    <glyph glyph-name="Abreve" unicode="&#x102;" horiz-adv-x="606" 
d="M-13 46l56 3q4 2 5 5q34 87 231 605q12 1 55 1q39 -105 121.5 -336t97.5 -274l61 -3q0 -32 -1 -46h-94q-24 0 -68.5 -0.5t-63.5 -0.5q0 8 0.5 23t0.5 23l78 3q4 0 2 5q-40 116 -51 144q-1 5 -7 5l-239 -1q-43 -122 -53 -152l90 -3q0 -31 -1 -46h-133q-15 0 -45 -0.5
t-43 -0.5q0 31 1 46zM299 548h-4q-18 -48 -54.5 -149t-51.5 -143q-3 -6 2 -6h210q-25 75 -102 298zM310 746q-48 0 -83 29t-45 70q13 7 39 13q34 -59 92 -59q30 0 53.5 16.5t34.5 38.5q19 -3 41 -10q-9 -35 -46 -66.5t-86 -31.5z" />
    <glyph glyph-name="abreve" unicode="&#x103;" horiz-adv-x="454" 
d="M293 35h-5q-88 -45 -146 -45q-40 0 -76.5 29t-36.5 69q0 49 51.5 92t143.5 42h68q3 79 -16.5 114t-66.5 35q-58 0 -120 -67q-21 21 -34 38q86 88 178 88q59 0 96.5 -41t37.5 -121q0 -126 -2 -210q0 -15 9 -15l67 2v-42q-45 -13 -115 -13q-9 8 -33 45zM110 96
q0 -23 19 -38t48 -15q53 0 111 40q3 2 3 9v85q-10 2 -56 2q-63 0 -94 -23t-31 -60zM226 487q-43 0 -75 28t-41 68q13 7 39 13q31 -58 80 -58q50 0 76 54q25 -4 40 -10q-8 -34 -41 -64.5t-78 -30.5z" />
    <glyph glyph-name="Aogonek" unicode="&#x104;" horiz-adv-x="606" 
d="M613 0h-29q-35 -1 -77.5 -41t-42.5 -76q0 -20 12.5 -31.5t28.5 -11.5q27 0 51 18q12 -12 18 -30q-39 -41 -91 -41q-35 0 -63 23.5t-28 58.5q0 65 104 131h-109q0 31 1 46l78 3q4 0 2 5t-21.5 62t-29.5 82q-1 5 -7 5l-239 -1q-42 -119 -53 -153l90 -2q0 -31 -1 -47h-133
h-88q0 31 1 46l56 3q4 2 5 5q34 87 231 605q12 1 55 1q40 -108 127.5 -354t91.5 -257l61 -2q0 -32 -1 -47zM299 548h-5q-11 -31 -48.5 -136t-56.5 -156q-3 -6 2 -6h210q-25 75 -102 298z" />
    <glyph glyph-name="aogonek" unicode="&#x105;" horiz-adv-x="454" 
d="M441 3q-53 -12 -69 -23q-67 -47 -67 -97q0 -21 12 -32.5t29 -11.5q26 0 51 19q12 -14 18 -30q-43 -41 -91 -41q-35 0 -63 23.5t-28 58.5q0 61 91 122q-7 7 -31 44h-5q-88 -45 -146 -45q-40 0 -76.5 29t-36.5 69q0 49 51.5 92t143.5 42h68q3 79 -16.5 114t-66.5 35
q-58 0 -120 -67q-21 21 -34 38q86 88 178 88q59 0 96.5 -41t37.5 -121q0 -126 -2 -210q0 -15 9 -15l67 2v-42zM110 96q0 -23 19 -38t48 -15q53 0 111 40q3 2 3 9v85q-10 2 -56 2q-63 0 -94 -23t-31 -60z" />
    <glyph glyph-name="Cacute" unicode="&#x106;" horiz-adv-x="585" 
d="M50 289q0 188 132 295q92 76 227 76q81 0 127 -21q4 -53 10 -169q-14 -2 -57 -7l-16 108q-1 11 -8 15q-28 18 -83 18q-95 0 -158 -64q-89 -91 -89 -228q0 -67 13.5 -112t48.5 -84q27 -31 72 -49.5t95 -18.5q83 0 177 42q9 -30 12 -51q-119 -49 -203 -49q-116 0 -193 60
q-49 39 -78 101.5t-29 137.5zM480 857q20 -26 36 -54q-29 -16 -89.5 -50.5t-78.5 -44.5q-15 20 -23 34q115 85 155 115z" />
    <glyph glyph-name="cacute" unicode="&#x107;" horiz-adv-x="403" 
d="M40 185q0 107 68 176t174 69q60 0 92 -21q0 -11 -11.5 -33.5t-20.5 -27.5l-16 7q-17 7 -36.5 12t-37.5 5q-54 0 -86 -37q-45 -51 -45 -131q0 -79 36 -122q31 -38 90 -38q48 0 124 30q6 -19 11 -43q-82 -41 -159 -41t-130 52t-53 143zM337 640q23 -17 43 -44
q-61 -48 -149 -121q-14 15 -28 31q22 21 67.5 67.5t66.5 66.5z" />
    <glyph glyph-name="Ccaron" unicode="&#x10c;" horiz-adv-x="585" 
d="M50 289q0 188 132 295q92 76 227 76q81 0 127 -21q4 -53 10 -169q-14 -2 -57 -7l-16 108q-1 11 -8 15q-28 18 -83 18q-95 0 -158 -64q-89 -91 -89 -228q0 -67 13.5 -112t48.5 -84q27 -31 72 -49.5t95 -18.5q83 0 177 42q9 -30 12 -51q-119 -49 -203 -49q-116 0 -193 60
q-49 39 -78 101.5t-29 137.5zM362 779q78 52 110 73q13 -12 27 -31q-12 -10 -36.5 -30.5t-45.5 -38t-38 -31.5q-24 0 -35 1q-69 58 -118 97q18 24 26 31q56 -35 110 -71z" />
    <glyph glyph-name="ccaron" unicode="&#x10d;" horiz-adv-x="403" 
d="M40 185q0 107 68 176t174 69q60 0 92 -21q0 -11 -11.5 -33.5t-20.5 -27.5l-16 7q-17 7 -36.5 12t-37.5 5q-54 0 -86 -37q-45 -51 -45 -131q0 -79 36 -122q31 -38 90 -38q48 0 124 30q6 -19 11 -43q-82 -41 -159 -41t-130 52t-53 143zM245 542q15 15 47.5 47t46.5 45
q13 -9 29 -27q-17 -19 -54 -63t-51 -60q-18 -2 -37 0q-5 6 -44 53t-60 71q14 14 29 26q14 -14 47 -46t47 -46z" />
    <glyph glyph-name="Dcaron" unicode="&#x10e;" horiz-adv-x="691" 
d="M49 45l70 3q4 0 4 4v548l-74 3q0 32 1 46q108 2 204 2q88 0 144 -12.5t104 -39.5q63 -37 101 -105t38 -149q0 -88 -32 -162t-93 -119q-88 -64 -233 -64h-119q-16 0 -56 -0.5t-60 -0.5q0 8 0.5 23.5t0.5 22.5zM203 602l-2 -521q0 -21 14 -28.5t63 -7.5q130 0 200 64
q36 33 57.5 88.5t21.5 117.5q0 83 -21 134.5t-69 94.5q-72 62 -203 62q-48 0 -61 -4zM309 771q78 52 110 73q13 -12 27 -31q-12 -10 -36.5 -30.5t-45.5 -38t-38 -31.5q-24 0 -35 1q-88 74 -118 97q18 24 26 32q6 -4 47.5 -31t62.5 -41z" />
    <glyph glyph-name="dcaron" unicode="&#x10f;" horiz-adv-x="576" 
d="M365 35l-6 -1q-59 -28 -85 -36t-54 -8q-73 0 -122 49q-58 56 -58 151q0 101 67 176q56 64 149 64q46 0 99 -20l4 3q0 38 -0.5 109.5t-1.5 108.5l-83 2q0 29 1 43q21 3 59 9t66.5 11t32.5 5q3 0 3 -4q0 -87 -1.5 -309t-1.5 -321q0 -21 11 -21l68 3v-42q-14 -5 -51.5 -11
t-65.5 -6q-16 13 -30 45zM257 378q-63 0 -98 -48q-36 -48 -36 -130q0 -73 32 -116q31 -41 85 -41q55 0 111 39q6 5 6 14q0 180 -1 256q-47 26 -99 26zM567 698q-25 -122 -51 -201q-7 -1 -48 7q15 91 22 196q45 6 77 -2z" />
    <glyph glyph-name="Dcroat" unicode="&#x110;" horiz-adv-x="708" 
d="M140 346v254l-74 3q0 32 1 46q108 2 205 2q90 0 143 -11.5t98 -36.5q68 -39 107 -108.5t39 -149.5q0 -186 -124 -280q-86 -65 -233 -65h-120q-17 0 -57 -0.5t-59 -0.5q-1 17 1 46l69 3q4 0 4 5v243h-88q0 35 1 49q29 1 87 1zM220 296l-1 -215q0 -21 13.5 -28.5t62.5 -7.5
q128 0 201 64q35 31 57 87.5t22 117.5q0 83 -21 135t-69 94q-71 63 -209 63q-42 0 -55 -4l-1 -256q29 1 88.5 1.5t91.5 0.5q0 -20 -2 -52h-178z" />
    <glyph glyph-name="dcroat" unicode="&#x111;" horiz-adv-x="521" 
d="M123 199q0 -70 32 -115q31 -41 85 -41q55 0 111 39q6 5 6 14q0 180 -1 256q-47 26 -98 26q-64 0 -99 -48q-36 -48 -36 -131zM358 514h-122q0 15 2 43q21 0 60.5 0.5t58.5 0.5v73l-83 2q0 29 1 43q21 3 59 9t66.5 11t32.5 5q3 0 3 -4q0 -87 -1 -138h57q0 -15 -2 -45h-55
q-2 -300 -2 -447q0 -21 11 -21l68 3v-42q-14 -5 -51.5 -11t-65.5 -6q-15 11 -31 45h-5q-58 -29 -84 -37t-55 -8q-73 0 -122 49q-58 56 -58 152q0 100 67 175q56 64 149 64q46 0 99 -20l4 3q0 18 -0.5 51.5t-0.5 49.5z" />
    <glyph glyph-name="Emacron" unicode="&#x112;" horiz-adv-x="555" 
d="M51 46l69 3q3 0 3 3v549l-73 2q0 32 1 47q17 0 56 -0.5t59 -0.5q15 0 112.5 0.5t108.5 0.5h87q9 -139 9 -151q-6 -1 -24.5 -3.5t-28.5 -3.5l-16 87q-3 16 -23 18q-65 5 -159 5q-5 0 -16 -0.5t-13 -0.5l-1 -246q28 0 78.5 0.5t77.5 1.5q13 1 17.5 5.5t6.5 14.5l5 48
q35 0 51 -1q-2 -60 -2 -95v-92q-33 -2 -52 -1l-3 52q-1 19 -24 19q-46 1 -155 1l-1 -240q0 -13 8.5 -16.5t47.5 -3.5q125 0 155 7q12 3 18 20l32 91q11 -2 29.5 -5.5t22.5 -4.5q-14 -64 -35 -157q-12 0 -122 0.5t-189 0.5q-22 0 -61.5 -0.5t-56.5 -0.5q0 32 1 47zM390 785
q2 -25 0 -49q-33 0 -110 0.5t-115 0.5q-2 22 0 46q38 1 112.5 1.5t112.5 0.5z" />
    <glyph glyph-name="emacron" unicode="&#x113;" horiz-adv-x="445" 
d="M40 192q0 100 59 169t154 69q77 0 118 -51q38 -48 38 -131q-4 -10 -15.5 -22.5t-18.5 -13.5q-88 -3 -254 -3q-2 -83 33 -124q35 -40 103 -40q53 0 133 32q8 -21 11 -45q-86 -42 -159 -42q-95 0 -148.5 56t-53.5 146zM241 383q-47 0 -74 -30q-39 -48 -42 -98q109 0 195 3
q13 0 13 11q0 52 -27 84q-24 30 -65 30zM339 554q2 -23 0 -48q-28 0 -98 0.5t-103 0.5q-2 22 0 45q134 2 201 2z" />
    <glyph glyph-name="Edotaccent" unicode="&#x116;" horiz-adv-x="555" 
d="M51 46l69 3q3 0 3 3v549l-73 2q0 32 1 47q17 0 56 -0.5t59 -0.5q15 0 112.5 0.5t108.5 0.5h87q9 -139 9 -151q-6 -1 -24.5 -3.5t-28.5 -3.5l-16 87q-3 16 -23 18q-65 5 -159 5q-5 0 -16 -0.5t-13 -0.5l-1 -246q28 0 78.5 0.5t77.5 1.5q13 1 17.5 5.5t6.5 14.5l5 48
q35 0 51 -1q-2 -60 -2 -95v-92q-33 -2 -52 -1l-3 52q-1 19 -24 19q-46 1 -155 1l-1 -240q0 -13 8.5 -16.5t47.5 -3.5q125 0 155 7q12 3 18 20l32 91q11 -2 29.5 -5.5t22.5 -4.5q-14 -64 -35 -157q-12 0 -122 0.5t-189 0.5q-22 0 -61.5 -0.5t-56.5 -0.5q0 32 1 47zM290 821
q25 0 37.5 -16t11.5 -36q0 -23 -15 -38t-38 -15t-38 15.5t-15 36.5q0 22 15 37.5t42 15.5z" />
    <glyph glyph-name="edotaccent" unicode="&#x117;" horiz-adv-x="445" 
d="M40 192q0 100 59 169t154 69q77 0 118 -51q38 -48 38 -131q-4 -10 -15.5 -22.5t-19.5 -13.5q-87 -3 -253 -3q-2 -83 33 -124q35 -40 103 -40q53 0 133 32q5 -19 11 -45q-87 -42 -159 -42q-95 0 -148.5 56t-53.5 146zM241 383q-47 0 -74 -30q-39 -48 -42 -98q109 0 195 3
q13 0 13 11q0 52 -27 84q-24 30 -65 30zM252 632q25 0 37.5 -16t12.5 -36q0 -23 -15 -38.5t-38 -15.5t-38.5 15.5t-15.5 37.5t15 37.5t42 15.5z" />
    <glyph glyph-name="Eogonek" unicode="&#x118;" horiz-adv-x="555" 
d="M51 650h115q197 0 221 1h87q9 -146 9 -152q-44 -5 -53 -6l-16 87q-3 16 -23 17q-43 5 -159 5h-29l-1 -247q28 0 79 0.5t78 1.5q20 1 23 20l5 48h51q-2 -62 -2 -96v-92q-33 -2 -52 -1l-3 52q-1 19 -24 19q-45 1 -155 1l-1 -240q0 -13 8.5 -16.5t47.5 -3.5q125 0 155 7
q12 4 18 20l32 91q36 -6 52 -10q-22 -100 -35 -156q-57 -23 -84.5 -56t-27.5 -61q0 -21 12.5 -32.5t28.5 -11.5q28 0 51 19q13 -13 19 -30q-41 -41 -91 -41q-36 0 -63.5 23.5t-27.5 58.5q0 65 103 131q-13 0 -83 0.5t-148 0.5q-22 0 -61.5 -0.5t-56.5 -0.5q0 32 1 46l69 3
q3 0 3 4v548l-73 3q0 31 1 46z" />
    <glyph glyph-name="eogonek" unicode="&#x119;" horiz-adv-x="445" 
d="M402 32q-52 -28 -86 -71t-34 -79q0 -20 12.5 -31.5t28.5 -11.5q25 0 51 18q12 -12 18 -29q-39 -41 -91 -41q-35 0 -63 23.5t-28 58.5q0 64 85 129q-30 -8 -54 -8q-94 0 -147.5 56t-53.5 145v1q0 100 59.5 169t154.5 69q76 0 117 -51q38 -48 38 -131q-4 -10 -15.5 -22.5
t-18.5 -13.5q-88 -3 -253 -3q-2 -85 32 -124q35 -40 104 -40q54 0 132 32q6 -17 12 -45zM242 383q-48 0 -75 -30q-39 -48 -42 -98q109 0 195 3q13 0 13 11q0 52 -27 84q-24 30 -64 30z" />
    <glyph glyph-name="Ecaron" unicode="&#x11a;" horiz-adv-x="555" 
d="M51 46l69 3q3 0 3 3v549l-73 2q0 32 1 47q17 0 56 -0.5t59 -0.5q15 0 112.5 0.5t108.5 0.5h87q9 -139 9 -151q-6 -1 -24.5 -3.5t-28.5 -3.5l-16 87q-3 16 -23 18q-65 5 -159 5q-5 0 -16 -0.5t-13 -0.5l-1 -246q28 0 78.5 0.5t77.5 1.5q13 1 17.5 5.5t6.5 14.5l5 48
q35 0 51 -1q-2 -60 -2 -95v-92q-33 -2 -52 -1l-3 52q-1 19 -24 19q-46 1 -155 1l-1 -240q0 -13 8.5 -16.5t47.5 -3.5q125 0 155 7q12 3 18 20l32 91q11 -2 29.5 -5.5t22.5 -4.5q-14 -64 -35 -157q-12 0 -122 0.5t-189 0.5q-22 0 -61.5 -0.5t-56.5 -0.5q0 32 1 47zM278 771
q9 6 50 33t60 40q13 -12 27 -31q-12 -10 -36.5 -30.5t-45.5 -38t-38 -31.5q-24 0 -35 1q-58 48 -117 97q16 22 25 31q42 -27 110 -71z" />
    <glyph glyph-name="ecaron" unicode="&#x11b;" horiz-adv-x="445" 
d="M40 192q0 100 59 169t154 69q77 0 118 -51q38 -48 38 -131q-4 -10 -15.5 -22.5t-18.5 -13.5q-88 -3 -254 -3q-2 -83 33 -124q35 -40 103 -40q53 0 133 32q8 -21 11 -45q-86 -42 -159 -42q-95 0 -148.5 56t-53.5 146zM241 383q-47 0 -74 -30q-39 -48 -42 -98q109 0 195 3
q13 0 13 11q0 52 -27 84q-24 30 -65 30zM249 542q31 30 93 92q15 -10 29 -27q-13 -15 -50 -59.5t-54 -63.5q-18 -2 -37 0q-90 106 -105 124q10 10 30 26q14 -14 47 -46t47 -46z" />
    <glyph glyph-name="Gbreve" unicode="&#x11e;" horiz-adv-x="665" 
d="M514 461l-14 100q-2 14 -8 19q-35 27 -103 27q-98 0 -164 -63q-87 -85 -87 -223t70 -209q72 -74 188 -74q24 0 46 4t34 9.5t12 10.5v170l-107 2q0 33 1 48h144h97q0 -33 -1 -48l-51 -2q-4 0 -4 -4l-2 -205q-56 -33 -178 -33q-144 0 -227 68q-110 94 -110 251
q0 91 39 165.5t106 122.5q89 63 217 63q94 0 151 -27q6 -107 7 -166q-9 -1 -28 -3t-28 -3zM374 726q-48 0 -83 29t-45 70q15 7 39 13q32 -59 92 -59q58 0 88 55q17 -3 41 -10q-10 -35 -46.5 -66.5t-85.5 -31.5z" />
    <glyph glyph-name="gbreve" unicode="&#x11f;" horiz-adv-x="466" 
d="M138 115v5q-93 44 -93 142q0 69 52.5 118.5t139.5 49.5q42 0 69 -9q8 -2 21 -2q15 1 43.5 2t51 2t36.5 2q2 -25 0 -51h-95v-4q35 -33 35 -94q0 -68 -45 -114q-57 -60 -165 -55q-49 -39 -49 -52q0 -18 25.5 -24t105.5 -9q113 -5 145 -26q25 -16 35.5 -33t10.5 -46
q0 -42 -26.5 -77.5t-76.5 -56.5q-65 -28 -153 -28q-91 0 -141 29.5t-50 85.5q0 27 22 45q19 15 45 34t38 29v5q-59 18 -59 69q0 6 11 15t67 48zM124 265q0 -60 27 -88t69 -28q44 0 72 32.5t28 91.5q0 54 -23 83q-24 31 -70 31q-47 0 -75 -32t-28 -90zM386 -99
q0 33 -22.5 44.5t-89.5 16.5q-27 2 -104 6q-56 -49 -67 -66q-11 -16 -11 -32q0 -35 38 -53t86 -18q70 0 115 23q55 30 55 79zM241 487q-43 0 -74.5 28t-40.5 68q16 8 40 13q29 -58 79 -58t76 54q25 -4 41 -10q-8 -34 -41.5 -64.5t-79.5 -30.5z" />
    <glyph glyph-name="Gcommaaccent" unicode="&#x122;" horiz-adv-x="665" 
d="M514 461l-14 100q-2 14 -8 19q-35 27 -103 27q-98 0 -164 -63q-87 -85 -87 -223t70 -209q72 -74 188 -74q24 0 46 4t34 9.5t12 10.5v170l-107 2q0 33 1 48h144h97q0 -33 -1 -48l-51 -2q-4 0 -4 -4l-2 -205q-56 -33 -178 -33q-144 0 -227 68q-110 94 -110 251
q0 91 39 165.5t106 122.5q89 63 217 63q94 0 151 -27q6 -107 7 -166q-9 -1 -28 -3t-28 -3zM380 -52q23 0 41 -22t18 -51q0 -90 -92 -143q-9 11 -23 30q55 36 55 81q0 30 -41 41q-4 26 9.5 45t32.5 19z" />
    <glyph glyph-name="gcommaaccent" unicode="&#x123;" horiz-adv-x="466" 
d="M138 115v5q-93 44 -93 142q0 69 52.5 118.5t139.5 49.5q42 0 69 -9q8 -2 21 -2q15 1 43.5 2t51 2t36.5 2q2 -25 0 -51h-95v-4q35 -33 35 -94q0 -68 -45 -114q-57 -60 -165 -55q-49 -39 -49 -52q0 -18 25.5 -24t105.5 -9q113 -5 145 -26q25 -16 35.5 -33t10.5 -46
q0 -42 -26.5 -77.5t-76.5 -56.5q-65 -28 -153 -28q-91 0 -141 29.5t-50 85.5q0 27 22 45q19 15 45 34t38 29v5q-59 18 -59 69q0 6 11 15t67 48zM124 265q0 -60 27 -88t69 -28q44 0 72 32.5t28 91.5q0 52 -23 83q-24 31 -70 31q-47 0 -75 -32t-28 -90zM386 -99
q0 33 -22.5 44.5t-89.5 16.5q-27 2 -104 6q-56 -49 -67 -66q-11 -16 -11 -32q0 -35 38 -53t86 -18q70 0 115 23q55 30 55 79zM234 483q-21 0 -39 20t-18 45q0 79 90 128q11 -10 22 -26q-53 -33 -53 -72q0 -27 39 -37q4 -24 -8.5 -41t-32.5 -17z" />
    <glyph glyph-name="Imacron" unicode="&#x12a;" horiz-adv-x="324" 
d="M123 601l-79 3q0 7 0.5 22.5t0.5 23.5q17 0 60 -0.5t64 -0.5q20 0 60 0.5t57 0.5q0 -8 -0.5 -23.5t-0.5 -22.5l-79 -3q-3 0 -3 -4l-2 -547l85 -3q0 -32 -1 -47q-16 0 -57 0.5t-62 0.5q-20 0 -61 -0.5t-59 -0.5q0 31 1 47l72 3q4 0 4 4v547zM279 781q2 -25 0 -49
q-33 0 -110 0.5t-115 0.5q-2 22 0 46q38 1 112.5 1.5t112.5 0.5z" />
    <glyph glyph-name="imacron" unicode="&#x12b;" horiz-adv-x="266" 
d="M102 361l-77 2v42q18 2 55 8.5t65.5 11.5t31.5 5q2 0 2 -3q0 -55 -1 -191t-1 -189l70 -3q0 -29 -1 -43h-111q-17 0 -52.5 -0.5t-51.5 -0.5v44l67 3q4 0 4 4v310zM234 555q2 -23 0 -48q-28 0 -98 0.5t-103 0.5q-2 22 0 45q134 2 201 2z" />
    <glyph glyph-name="Iogonek" unicode="&#x12e;" horiz-adv-x="324" 
d="M152 1q-20 0 -54 -0.5t-52 -0.5q0 31 1 47l72 3q4 0 4 4v547l-79 3q0 7 0.5 22.5t0.5 23.5q17 0 60 -0.5t64 -0.5q20 0 60 0.5t57 0.5q0 -8 -0.5 -23.5t-0.5 -22.5l-79 -3q-3 0 -3 -4l-2 -547l86 -3q0 -31 -1 -47l-46 1q-35 -2 -77.5 -42t-42.5 -76q0 -20 12.5 -31.5
t28.5 -11.5q29 0 51 18q13 -13 19 -29q-42 -42 -91 -42q-36 0 -64 23.5t-28 58.5q0 64 104 132z" />
    <glyph glyph-name="iogonek" unicode="&#x12f;" horiz-adv-x="266" 
d="M136 632q25 0 37.5 -16t12.5 -36q0 -23 -15 -38.5t-38 -15.5t-38.5 15.5t-15.5 37.5t15 37.5t42 15.5zM142 0h-111v43l67 3q4 0 4 4v311l-77 2v42q18 2 55 8.5t65.5 11.5t31.5 5q2 0 2 -3q0 -55 -1 -191.5t-1 -189.5l71 -2q0 -8 -0.5 -22.5t-0.5 -21.5h-46
q-92 -66 -92 -117q0 -20 12.5 -31.5t28.5 -11.5q29 0 51 18q13 -13 19 -29q-41 -41 -91 -41q-36 0 -63.5 23t-27.5 59q0 62 104 130z" />
    <glyph glyph-name="Idotaccent" unicode="&#x130;" horiz-adv-x="324" 
d="M123 601l-79 3q0 7 0.5 22.5t0.5 23.5q17 0 60 -0.5t64 -0.5q20 0 60 0.5t57 0.5q0 -32 -1 -46l-79 -3q-2 0 -2 -4l-3 -547l85 -3q1 -16 -1 -47q-16 0 -57 0.5t-62 0.5q-20 0 -61 -0.5t-59 -0.5q0 31 1 47l72 3q4 0 4 4v547zM169 821q25 0 37 -16t12 -36q0 -23 -15 -38.5
t-38 -15.5t-38 15.5t-15 37.5t15.5 37.5t41.5 15.5z" />
    <glyph glyph-name="dotlessi" unicode="&#x131;" horiz-adv-x="266" 
d="M102 361l-77 2v42q18 2 55 8.5t65.5 11.5t31.5 5q2 0 2 -3q0 -55 -1 -191t-1 -189l70 -3q0 -29 -1 -43h-111q-17 0 -52.5 -0.5t-51.5 -0.5v44l67 3q4 0 4 4v310z" />
    <glyph glyph-name="Kcommaaccent" unicode="&#x136;" horiz-adv-x="631" 
d="M123 600l-71 3q0 32 1 47q16 0 56 -0.5t60 -0.5q18 0 55.5 0.5t53.5 0.5q0 -32 -1 -47l-70 -2q-3 -1 -3 -6l-2 -240q41 0 69 7q66 63 197 234q3 3 -2 3l-67 4q0 31 1 46h130q14 0 41 0.5t38 0.5q0 -32 -1 -47l-53 -3q-96 -111 -220 -247v-5q56 -42 116 -137
q62 -97 89 -136q16 -23 33 -23l72 -4q0 -16 -2 -46q-12 -1 -40 -1.5t-40 -0.5q-11 0 -34.5 -0.5t-32.5 -0.5q-9 10 -108 168q-87 142 -125 142q-47 0 -61 -2l-1 -257l81 -3q1 -16 -1 -47q-15 0 -55.5 0.5t-60.5 0.5q-19 0 -58 -0.5t-55 -0.5v47l67 3q4 0 4 3v547zM332 -42
q23 0 41 -22.5t18 -50.5q0 -89 -92 -144q-16 20 -23 30q55 37 55 81q0 30 -41 41q-4 27 9.5 46t32.5 19z" />
    <glyph glyph-name="kcommaaccent" unicode="&#x137;" horiz-adv-x="499" 
d="M88 633l-76 1q0 29 1 42q16 2 53 8.5t66 11.5t32 5t3 -4q0 -35 -3 -443q46 0 63 3q60 56 107 110q1 4 -2 5l-47 2q0 32 1 45h100q14 0 41.5 0.5t39.5 0.5q2 -23 0 -45l-47 -3q-85 -82 -135 -127v-5q39 -32 84 -104q39 -64 53 -79q9 -9 18 -9l60 -2q0 -30 -1 -45
q-37 -1 -133 -1q-23 31 -67 110q-48 83 -83 100q-28 0 -52 -2q0 -24 -0.5 -81t-0.5 -80l63 -3q0 -29 -1 -43h-102q-17 0 -51.5 -0.5t-49.5 -0.5q0 30 1 44l62 3q2 0 2 4q1 175 1 582zM250 -45q21 0 39 -20t18 -45q0 -79 -90 -128q-12 12 -23 26q54 33 54 73q0 25 -40 37
q-4 24 9 40.5t33 16.5z" />
    <glyph glyph-name="Lacute" unicode="&#x139;" horiz-adv-x="523" 
d="M123 600l-73 3q-1 15 1 46h117h127q0 -17 -2 -47l-87 -2q-2 0 -2 -4l-3 -528q0 -14 6.5 -17.5t36.5 -3.5q127 0 159 6q12 3 18 21l36 105q14 -2 53 -12q-11 -54 -39 -168q-13 0 -119.5 0.5t-184.5 0.5q-22 0 -61.5 -0.5t-56.5 -0.5q0 17 2 47l68 3q4 0 4 4v547zM281 849
q22 -28 36 -53q-28 -16 -87 -50t-80 -46q-15 20 -23 34q46 34 154 115z" />
    <glyph glyph-name="lacute" unicode="&#x13a;" horiz-adv-x="256" 
d="M90 633l-80 2q0 7 0.5 21.5t0.5 21.5q19 2 56 7.5t66.5 10.5t32.5 5t3 -4q0 -76 -1.5 -308.5t-2.5 -341.5l78 -3q0 -29 -1 -43h-116q-18 0 -55 -0.5t-53 -0.5q0 30 1 44l67 3q3 0 3 4q2 380 1 582zM210 871q20 -23 37 -54q-29 -16 -89.5 -50.5t-78.5 -44.5q-15 20 -23 34
q110 81 154 115z" />
    <glyph glyph-name="Lcommaaccent" unicode="&#x13b;" horiz-adv-x="523" 
d="M123 600l-73 3q-1 15 1 46h117h127q0 -17 -2 -47l-87 -2q-2 0 -2 -4l-3 -528q0 -14 6.5 -17.5t36.5 -3.5q127 0 159 6q12 3 18 21l36 105q14 -2 53 -12q-11 -54 -39 -168q-13 0 -119.5 0.5t-184.5 0.5q-22 0 -61.5 -0.5t-56.5 -0.5q0 17 2 47l68 3q4 0 4 4v547zM289 -48
q23 0 41 -22.5t18 -51.5q0 -88 -92 -143q-16 20 -23 30q55 37 55 81q0 30 -41 41q-4 27 9 46t33 19z" />
    <glyph glyph-name="lcommaaccent" unicode="&#x13c;" horiz-adv-x="256" 
d="M90 633l-80 2q0 7 0.5 21.5t0.5 21.5q19 2 56 7.5t66.5 10.5t32.5 5t3 -4q0 -76 -1.5 -308.5t-2.5 -341.5l78 -3q0 -29 -1 -43h-116q-18 0 -55 -0.5t-53 -0.5q0 30 1 44l67 3q3 0 3 4q2 380 1 582zM133 -53q21 0 39 -20t18 -45q0 -79 -90 -128q-14 14 -22 26q53 33 53 73
q0 25 -39 37q-4 23 9 40t32 17z" />
    <glyph glyph-name="Lcaron" unicode="&#x13d;" horiz-adv-x="523" 
d="M123 600l-73 3q-1 15 1 46h117h127q0 -32 -1 -47l-88 -2q-2 0 -2 -3l-3 -529q0 -14 6.5 -17.5t36.5 -3.5q128 0 160 6q12 3 18 21l36 105q15 -3 53 -12q-24 -106 -39 -168q-13 0 -120 0.5t-185 0.5q-22 0 -61.5 -0.5t-56.5 -0.5q0 17 2 47l68 3q4 0 4 4v547zM450 696
q-22 -104 -51 -186q-14 -2 -48 7q16 88 22 181q40 7 77 -2z" />
    <glyph glyph-name="lcaron" unicode="&#x13e;" horiz-adv-x="309" 
d="M90 633l-80 1q0 8 0.5 22.5t0.5 21.5q19 2 56 7.5t66.5 10.5t32.5 5t3 -4q0 -76 -1.5 -308.5t-2.5 -341.5l78 -3q0 -29 -1 -43h-116q-18 0 -55 -0.5t-53 -0.5q0 30 1 44l67 3q3 0 3 4q2 379 1 582zM298 698q-25 -122 -51 -201q-17 -1 -48 7q14 83 23 196q43 6 76 -2z" />
    <glyph glyph-name="Lslash" unicode="&#x141;" horiz-adv-x="543" 
d="M143 600l-73 3q-1 15 1 46h118h126q0 -32 -1 -47l-88 -2q-2 0 -2 -3l-1 -250q52 26 146 75q11 -19 20 -47q-94 -46 -166 -82l-1 -225q0 -14 6.5 -17.5t36.5 -3.5q127 0 159 6q12 3 18 21l36 105q15 -3 53 -12q-24 -106 -39 -168q-13 0 -119.5 0.5t-185.5 0.5
q-22 0 -61 -0.5t-56 -0.5q0 32 1 47l68 3q4 0 4 3v205q-14 -8 -43 -22t-43 -22q-11 18 -20 41q16 9 51.5 27t54.5 29v290z" />
    <glyph glyph-name="lslash" unicode="&#x142;" horiz-adv-x="295" 
d="M39 44l67 3q4 0 4 4q0 38 0.5 146.5t0.5 151.5q-11 -7 -35 -22.5t-36 -23.5q-11 16 -21 40q80 51 91 58v232l-80 2q0 7 0.5 21.5t0.5 21.5q19 2 56 7.5t66.5 10.5t32.5 5t3 -4q-3 -242 -3 -251q17 10 76 48q14 -21 22 -42q-12 -7 -31.5 -19.5t-35.5 -22.5t-30 -18
q-2 -196 -2 -345l78 -3q0 -29 -1 -43h-116q-18 0 -55 -0.5t-53 -0.5q0 30 1 44z" />
    <glyph glyph-name="Nacute" unicode="&#x143;" horiz-adv-x="716" 
d="M48 46l64 3q4 0 4 4v549l-73 2q-1 16 1 47q22 0 71.5 -0.5t72.5 -0.5q186 -275 358 -540l5 1q-2 328 -4 491l-94 1q0 8 0.5 24t0.5 23h124q18 0 50.5 0.5t45.5 0.5v-15v-17v-14l-61 -3q-3 0 -3 -4l-3 -594q-24 -11 -53 -11q-165 227 -372 539h-6q0 -322 -1 -483l100 -2
q0 -7 -0.5 -23t-0.5 -23h-132q-17 0 -49.5 -0.5t-45.5 -0.5q0 32 1 46zM449 835q22 -28 36 -53q-107 -61 -168 -95q-14 18 -23 34q98 73 155 114z" />
    <glyph glyph-name="nacute" unicode="&#x144;" horiz-adv-x="558" 
d="M101 360l-77 2q0 6 0.5 20t0.5 21q17 3 50.5 9.5t59 11.5t28.5 5q2 0 2 -3q5 -29 11 -59l5 -1q70 42 99.5 53t64.5 11q68 0 106 -68q20 -32 20 -73q0 -17 -3 -242l64 -3q0 -29 -1 -43q-16 0 -51.5 -0.5t-53.5 -0.5q-16 0 -49 -0.5t-47 -0.5q0 30 1 44l58 3q3 2 3 4
q1 54 1 181q0 78 -13 101q-21 38 -68 38q-27 0 -64.5 -17t-68.5 -42q-2 -150 -2 -264l72 -3q0 -7 -0.5 -22t-0.5 -22q-16 0 -54.5 0.5t-58.5 0.5q-16 0 -49 -0.5t-48 -0.5q0 29 1 44l59 3q4 0 4 3zM355 640q26 -21 43 -44q-147 -119 -149 -121q-3 3 -8.5 9.5t-10.5 11.5
t-9 10q22 21 67.5 67.5t66.5 66.5z" />
    <glyph glyph-name="Ncommaaccent" unicode="&#x145;" horiz-adv-x="716" 
d="M48 46l64 3q4 0 4 4v549l-73 2q-1 16 1 47q22 0 71.5 -0.5t72.5 -0.5q186 -275 358 -540l5 1q-2 328 -4 491l-94 1q0 8 0.5 24t0.5 23h124q18 0 50.5 0.5t45.5 0.5v-15v-17v-14l-61 -3q-3 0 -3 -4l-3 -594q-24 -11 -53 -11q-165 227 -372 539h-6q0 -322 -1 -483l100 -2
q0 -7 -0.5 -23t-0.5 -23h-132q-17 0 -49.5 -0.5t-45.5 -0.5q0 32 1 46zM364 -42q23 0 41 -22.5t18 -50.5q0 -90 -92 -143q-4 4 -23 29q55 37 55 81q0 32 -41 41q-4 27 9.5 46t32.5 19z" />
    <glyph glyph-name="ncommaaccent" unicode="&#x146;" horiz-adv-x="558" 
d="M101 360l-77 2q0 6 0.5 20t0.5 21q17 3 50.5 9.5t59 11.5t28.5 5q2 0 2 -3q5 -29 11 -59l5 -1q70 42 99.5 53t64.5 11q68 0 106 -68q20 -32 20 -73q0 -17 -3 -242l64 -3q0 -29 -1 -43q-16 0 -51.5 -0.5t-53.5 -0.5q-16 0 -49 -0.5t-47 -0.5q0 30 1 44l58 3q3 2 3 4
q1 54 1 181q0 78 -13 101q-21 38 -68 38q-27 0 -64.5 -17t-68.5 -42q-2 -150 -2 -264l72 -3q0 -7 -0.5 -22t-0.5 -22q-16 0 -54.5 0.5t-58.5 0.5q-16 0 -49 -0.5t-48 -0.5q0 29 1 44l59 3q4 0 4 3zM279 -53q21 0 39 -20t18 -45q0 -79 -90 -128q-14 14 -22 26q53 33 53 72
q0 27 -39 37q-4 24 8.5 41t32.5 17z" />
    <glyph glyph-name="Ncaron" unicode="&#x147;" horiz-adv-x="716" 
d="M48 46l64 3q4 0 4 4v549l-73 2q-1 16 1 47q22 0 71.5 -0.5t72.5 -0.5q186 -275 358 -540l5 1q-2 328 -4 491l-94 1q0 8 0.5 24t0.5 23h124q18 0 50.5 0.5t45.5 0.5v-15v-17v-14l-61 -3q-3 0 -3 -4l-3 -594q-24 -11 -53 -11q-165 227 -372 539h-6q0 -322 -1 -483l100 -2
q0 -7 -0.5 -23t-0.5 -23h-132q-17 0 -49.5 -0.5t-45.5 -0.5q0 32 1 46zM353 772q9 6 50 33t60 40q15 -13 26 -31q-12 -10 -54.5 -46t-64.5 -54q-24 0 -35 1q-13 10 -54 44.5t-64 52.5q13 18 26 31q42 -27 110 -71z" />
    <glyph glyph-name="ncaron" unicode="&#x148;" horiz-adv-x="558" 
d="M101 360l-77 2q0 6 0.5 20t0.5 21q17 3 50.5 9.5t59 11.5t28.5 5q2 0 2 -3q5 -29 11 -59l5 -1q70 42 99.5 53t64.5 11q68 0 106 -68q20 -32 20 -73q0 -17 -3 -242l64 -3q0 -29 -1 -43q-16 0 -51.5 -0.5t-53.5 -0.5q-16 0 -49 -0.5t-47 -0.5q0 30 1 44l58 3q3 2 3 4
q1 54 1 181q0 78 -13 101q-21 38 -68 38q-27 0 -64.5 -17t-68.5 -42q-2 -150 -2 -264l72 -3q0 -7 -0.5 -22t-0.5 -22q-16 0 -54.5 0.5t-58.5 0.5q-16 0 -49 -0.5t-48 -0.5q0 29 1 44l59 3q4 0 4 3zM280 542q31 30 93 92q13 -8 30 -27q-17 -19 -54 -63t-51 -60q-18 -2 -37 0
q-9 11 -46.5 55.5t-57.5 68.5q14 14 29 26q14 -14 47 -46t47 -46z" />
    <glyph glyph-name="Omacron" unicode="&#x14c;" horiz-adv-x="718" 
d="M346 -10q-125 0 -207 84q-89 89 -89 246q0 92 39.5 167.5t99.5 116.5q83 56 189 56q97 0 168 -50q55 -39 88.5 -109.5t33.5 -155.5q0 -171 -104 -274q-84 -81 -218 -81zM361 40q95 0 149 62q72 85 72 222q0 145 -71 225q-57 61 -145 61q-84 0 -142 -52q-88 -80 -88 -232
q0 -146 74 -224q58 -62 151 -62zM476 785q2 -25 0 -49q-33 0 -110 0.5t-115 0.5q-2 22 0 46q38 1 112.5 1.5t112.5 0.5z" />
    <glyph glyph-name="omacron" unicode="&#x14d;" horiz-adv-x="505" 
d="M244 -10q-85 0 -137 47q-66 61 -66 165q0 113 84 183q57 45 137 45q75 0 124 -37q78 -59 78 -173q0 -120 -86 -188q-53 -42 -134 -42zM252 34q51 0 83 33q45 49 45 149q0 88 -40 132q-34 38 -85 38t-84 -34q-46 -47 -46 -143q0 -95 47 -142q30 -33 80 -33zM363 555
q2 -23 0 -48q-28 0 -98 0.5t-103 0.5q-2 22 0 45q134 2 201 2z" />
    <glyph glyph-name="Ohungarumlaut" unicode="&#x150;" horiz-adv-x="718" 
d="M346 -10q-125 0 -207 84q-89 89 -89 246q0 92 39.5 167.5t99.5 116.5q83 56 189 56q97 0 168 -50q55 -39 88.5 -109.5t33.5 -155.5q0 -171 -104 -274q-84 -81 -218 -81zM361 40q95 0 149 62q72 85 72 222q0 145 -71 225q-57 61 -145 61q-84 0 -142 -52q-88 -80 -88 -232
q0 -146 74 -224q58 -62 151 -62zM392 862q14 -12 37 -43q-11 -8 -63.5 -45t-81.5 -57q-23 29 -25 31q68 59 133 114zM514 859q19 -17 36 -43q-78 -55 -143 -104q-3 3 -11.5 14.5t-13.5 16.5q112 98 132 116z" />
    <glyph glyph-name="ohungarumlaut" unicode="&#x151;" horiz-adv-x="505" 
d="M244 -10q-85 0 -137 47q-66 61 -66 165q0 113 84 183q57 45 137 45q75 0 124 -37q78 -59 78 -173q0 -120 -86 -188q-53 -42 -134 -42zM252 34q51 0 83 33q45 49 45 149q0 88 -40 132q-34 38 -85 38t-84 -34q-46 -47 -46 -143q0 -95 47 -142q30 -33 80 -33zM268 638
q14 -11 40 -39q-19 -17 -63.5 -55t-67.5 -59q-6 5 -15.5 15.5t-12.5 13.5q52 53 119 124zM395 634q20 -16 39 -39q-9 -8 -130 -115q-19 19 -27 29q21 22 66 69.5t52 55.5z" />
    <glyph glyph-name="OE" unicode="&#x152;" horiz-adv-x="975" 
d="M50 320q0 91 38 167t102 121q74 52 176 52q60 0 108.5 -23t73.5 -59v72q9 0 26.5 -0.5t24.5 -0.5q15 0 108 0.5t104 0.5h87q6 -92 8 -151q-40 -5 -52 -6l-17 85q-3 17 -25 19q-57 5 -156 5q-5 0 -16 -0.5t-13 -0.5l-1 -243q27 0 77.5 0.5t77.5 1.5q22 0 25 20l5 47h51
q-2 -60 -2 -95v-93q-33 -2 -52 -1l-3 51q-1 20 -26 20q-91 2 -153 1l-1 -242q0 -13 8.5 -16.5t46.5 -3.5q125 0 155 7q13 3 19 20l32 90q24 -3 51 -10q-15 -74 -35 -156q-13 0 -114.5 0.5t-179.5 0.5h-60v85q-68 -95 -209 -95q-116 0 -198 79q-91 91 -91 251zM136 329
q0 -146 67 -220q63 -69 155 -69q63 0 112.5 33t76.5 96v320q-23 56 -70 88.5t-115 32.5q-88 0 -143 -55q-83 -83 -83 -226z" />
    <glyph glyph-name="oe" unicode="&#x153;" horiz-adv-x="781" 
d="M414 80h-5q-23 -40 -65.5 -65t-100.5 -25q-86 0 -135 46q-67 64 -67 165q0 116 83 183q58 46 139 46q56 0 97 -28t58 -70h5q25 47 68 72.5t97 25.5q77 0 118 -51q39 -47 39 -131q-4 -10 -15.5 -22.5t-19.5 -13.5q-92 -3 -253 -3q-2 -84 32 -123q35 -41 104 -41
q54 0 132 32q6 -17 12 -45q-84 -42 -160 -42q-123 0 -163 90zM254 34q49 0 80 31q45 49 45 148q0 89 -38 135q-33 38 -84 38q-54 0 -87 -37q-45 -48 -45 -137q0 -98 47 -145q30 -33 82 -33zM573 383q-43 0 -70 -30q-40 -43 -42 -98q110 0 194 3q13 0 13 11q0 52 -27 84
q-25 30 -68 30z" />
    <glyph glyph-name="Racute" unicode="&#x154;" horiz-adv-x="600" 
d="M123 601l-69 2q0 31 1 46q112 2 193 2q82 0 137 -15q51 -15 86.5 -57t35.5 -94q0 -63 -37.5 -109.5t-98.5 -70.5v-5q8 -3 15 -7.5t14.5 -12t12.5 -13t12.5 -17.5t12 -18.5t13.5 -23t13 -24t14.5 -29t15.5 -30.5q25 -47 35.5 -60.5t19.5 -13.5l62 -3q0 -15 -2 -47h-66
q-18 -1 -65 -1q-19 25 -66.5 118.5t-60.5 113.5q-18 26 -37.5 36t-55.5 10q-48 0 -58 -2v-226l84 -3q0 -31 -1 -47q-16 0 -57.5 0.5t-62.5 0.5q-20 0 -57 -0.5t-52 -0.5q0 31 1 47l63 3q5 0 5 3v548zM203 600l-2 -274q6 -2 53 -2q86 0 128.5 43t42.5 97q0 69 -44.5 105
t-120.5 36q-47 0 -57 -5zM381 850q20 -26 36 -54q-38 -21 -167 -95q-5 7 -24 34q47 34 155 115z" />
    <glyph glyph-name="racute" unicode="&#x155;" horiz-adv-x="375" 
d="M101 361l-73 1q0 28 1 42l51 9t60 11t28 5q1 0 1 -3q2 -26 4 -133l5 -1q41 80 71 109t64 29q33 0 59 -11q0 -16 -9.5 -41t-18.5 -32q-3 0 -12.5 2t-20 3.5t-18.5 1.5q-15 0 -34 -14q-31 -28 -65 -94q-17 -31 -17 -91q-1 -35 -1 -108l94 -2q0 -29 -1 -43h-127
q-18 0 -53 -0.5t-51 -0.5q0 30 1 43l58 3q4 0 4 3v312zM283 644q22 -18 43 -44q-22 -18 -73 -60t-76 -62q-3 3 -8.5 9.5t-10.5 11.5t-9 10q22 22 67.5 68t66.5 67z" />
    <glyph glyph-name="Rcommaaccent" unicode="&#x156;" horiz-adv-x="600" 
d="M123 601l-69 2q0 31 1 46q112 2 193 2q82 0 137 -15q51 -15 86.5 -57t35.5 -94q0 -63 -37.5 -109.5t-98.5 -70.5v-5q8 -3 15 -7.5t14.5 -12t12.5 -13t12.5 -17.5t12 -18.5t13.5 -23t13 -24t14.5 -29t15.5 -30.5q25 -47 35.5 -60.5t19.5 -13.5l62 -3q0 -15 -2 -47h-66
q-18 -1 -65 -1q-19 25 -66.5 118.5t-60.5 113.5q-18 26 -37.5 36t-55.5 10q-48 0 -58 -2v-226l84 -3q0 -31 -1 -47q-16 0 -57.5 0.5t-62.5 0.5q-20 0 -57 -0.5t-52 -0.5q0 31 1 47l63 3q5 0 5 3v548zM203 600l-2 -274q6 -2 53 -2q86 0 128.5 43t42.5 97q0 69 -44.5 105
t-120.5 36q-47 0 -57 -5zM326 -43q23 0 41 -22t18 -51q0 -45 -25.5 -82t-66.5 -61q-16 20 -23 30q55 36 55 81q0 30 -41 41q-4 27 9 45.5t33 18.5z" />
    <glyph glyph-name="rcommaaccent" unicode="&#x157;" horiz-adv-x="375" 
d="M101 361l-73 1q0 28 1 42l51 9t60 11t28 5q1 0 1 -3q2 -26 4 -133l5 -1q41 80 71 109t64 29q33 0 59 -11q0 -16 -9.5 -41t-18.5 -32q-3 0 -12.5 2t-20 3.5t-18.5 1.5q-15 0 -34 -14q-31 -28 -65 -94q-17 -31 -17 -91q-1 -35 -1 -108l94 -2q0 -29 -1 -43h-127
q-18 0 -53 -0.5t-51 -0.5q0 30 1 43l58 3q4 0 4 3v312zM162 -53q21 0 39 -20t18 -45q0 -79 -90 -128q-14 14 -22 26q53 33 53 73q0 25 -39 37q-4 23 9 40t32 17z" />
    <glyph glyph-name="Rcaron" unicode="&#x158;" horiz-adv-x="600" 
d="M123 601l-69 2q0 31 1 46q112 2 193 2q82 0 137 -15q51 -15 86.5 -57t35.5 -94q0 -63 -37.5 -109.5t-98.5 -70.5v-5q8 -3 15 -7.5t14.5 -12t12.5 -13t12.5 -17.5t12 -18.5t13.5 -23t13 -24t14.5 -29t15.5 -30.5q25 -47 35.5 -60.5t19.5 -13.5l62 -3q0 -15 -2 -47h-66
q-18 -1 -65 -1q-19 25 -66.5 118.5t-60.5 113.5q-18 26 -37.5 36t-55.5 10q-48 0 -58 -2v-226l84 -3q0 -31 -1 -47q-16 0 -57.5 0.5t-62.5 0.5q-20 0 -57 -0.5t-52 -0.5q0 31 1 47l63 3q5 0 5 3v548zM203 600l-2 -274q6 -2 53 -2q86 0 128.5 43t42.5 97q0 69 -44.5 105
t-120.5 36q-47 0 -57 -5zM279 771q78 52 110 73q13 -10 26 -31q-24 -20 -119 -100q-24 0 -35 1q-62 53 -118 97q12 18 26 32q6 -4 47.5 -31t62.5 -41z" />
    <glyph glyph-name="rcaron" unicode="&#x159;" horiz-adv-x="375" 
d="M101 361l-73 1q0 28 1 42l51 9t60 11t28 5q1 0 1 -3q2 -26 4 -133l5 -1q41 80 71 109t64 29q33 0 59 -11q0 -16 -9.5 -41t-18.5 -32q-3 0 -12.5 2t-20 3.5t-18.5 1.5q-15 0 -34 -14q-31 -28 -65 -94q-17 -31 -17 -91q-1 -35 -1 -108l94 -2q0 -29 -1 -43h-127
q-18 0 -53 -0.5t-51 -0.5q0 30 1 43l58 3q4 0 4 3v312zM206 542q31 30 93 92q13 -8 30 -27q-18 -21 -57 -67t-48 -57h-37q-13 15 -49 58.5t-55 66.5q14 14 29 26q14 -14 47 -46t47 -46z" />
    <glyph glyph-name="Sacute" unicode="&#x15a;" horiz-adv-x="492" 
d="M98 180l18 -105q2 -8 8 -11q34 -23 93 -23q77 0 114 39q32 33 32 80q0 56 -26 80.5t-98 57.5q-13 6 -20 9q-74 34 -112.5 73t-38.5 100q0 40 18.5 75.5t46.5 57.5q58 47 163 47q81 0 122 -22q8 -78 11 -148q-7 -1 -25.5 -3.5t-29.5 -3.5l-17 94q-3 9 -6 12q-24 20 -75 20
q-60 0 -94 -30q-38 -33 -38 -83q0 -49 26 -71.5t111 -60.5q82 -36 120 -75.5t38 -103.5q0 -87 -58 -139q-62 -56 -180 -56q-89 0 -147 24q-2 27 -6.5 80.5t-6.5 77.5q36 6 57 8zM362 860q22 -28 36 -53q-16 -9 -77.5 -44.5t-90.5 -51.5q-15 20 -23 34q115 85 155 115z" />
    <glyph glyph-name="sacute" unicode="&#x15b;" horiz-adv-x="401" 
d="M88 134l13 -65q3 -8 9 -12q27 -21 69 -21q51 0 75 16q28 21 28 56q0 34 -19 46.5t-81 31.5q-8 3 -13 4q-61 19 -87 45t-26 68q0 66 63 101q46 26 119 26q68 0 98 -18q8 -69 11 -110q-4 0 -22.5 -3t-28.5 -4l-14 63q-1 7 -7 11q-20 15 -59 15q-38 0 -62 -19
q-25 -18 -25 -52q0 -29 17.5 -41t81.5 -31q65 -19 96.5 -43.5t31.5 -76.5q0 -68 -64 -106q-42 -25 -121 -25q-74 0 -120 19q-2 19 -7 57.5t-8 58.5q24 6 52 9zM295 640q26 -21 43 -44q-23 -18 -74 -60t-75 -61q-15 15 -28 31q22 21 67.5 67.5t66.5 66.5z" />
    <glyph glyph-name="Scedilla" unicode="&#x15e;" horiz-adv-x="492" 
d="M147 -76l68 66q-17 0 -26 1q-76 0 -135 22q-2 26 -6.5 79.5t-6.5 79.5q37 6 57 7l18 -104q1 -8 8 -12q34 -23 93 -23q77 0 114 40q32 32 32 80q0 56 -26 80.5t-98 57.5q-13 6 -20 9q-74 34 -112.5 73t-38.5 100q0 39 18 74.5t47 58.5q58 47 163 47q81 0 122 -22
q8 -78 11 -148q-7 -1 -25.5 -3.5t-29.5 -3.5l-17 94q-1 7 -6 12q-24 20 -75 20q-60 0 -94 -30q-38 -33 -38 -83q0 -49 26 -71.5t111 -60.5q82 -36 120 -75.5t38 -104.5q0 -86 -58 -139q-41 -36 -104 -48l-61 -63q34 -5 51 -23.5t17 -43.5q0 -38 -38 -63.5t-103 -26.5
q-1 5 -2 11t-2 14t-2 12q83 2 83 47q0 19 -13 28q-13 11 -51 11z" />
    <glyph glyph-name="scedilla" unicode="&#x15f;" horiz-adv-x="401" 
d="M110 -73l65 63h-17q-66 1 -107 19q-2 19 -7 57.5t-8 58.5q22 5 52 9l13 -65q3 -8 9 -12q27 -21 69 -21q51 0 75 16q28 21 28 56q0 34 -19 46.5t-81 31.5q-8 3 -13 4q-61 19 -87 45t-26 68q0 66 63 101q46 26 119 26q68 0 98 -18q8 -69 11 -110q-4 0 -22.5 -3t-28.5 -4
l-14 63q-1 7 -7 11q-20 15 -59 15q-38 0 -62 -19q-25 -18 -25 -52q0 -29 18 -41t81 -31q65 -19 96.5 -43.5t31.5 -76.5q0 -68 -64 -106q-20 -13 -61 -20l-58 -59q27 -5 42 -22.5t15 -41.5q0 -37 -34.5 -59.5t-90.5 -23.5q-2 8 -4 34q72 5 72 44q0 15 -13 28q-12 11 -41 11z
" />
    <glyph glyph-name="Scaron" unicode="&#x160;" horiz-adv-x="492" 
d="M98 180l18 -105q2 -8 8 -11q34 -23 93 -23q77 0 114 39q32 33 32 80q0 56 -26 80.5t-98 57.5q-13 6 -20 9q-74 34 -112.5 73t-38.5 100q0 40 18.5 75.5t46.5 57.5q58 47 163 47q81 0 122 -22q8 -78 11 -148q-7 -1 -25.5 -3.5t-29.5 -3.5l-17 94q-3 9 -6 12q-24 20 -75 20
q-60 0 -94 -30q-38 -33 -38 -83q0 -49 26 -71.5t111 -60.5q82 -36 120 -75.5t38 -103.5q0 -87 -58 -139q-62 -56 -180 -56q-89 0 -147 24q-2 27 -6.5 80.5t-6.5 77.5q36 6 57 8zM273 771q19 13 57.5 38.5t52.5 35.5q13 -12 26 -32q-46 -40 -119 -99h-11h-13h-11
q-68 57 -118 97q10 15 25 32q14 -9 32.5 -21t42.5 -27.5t36 -23.5z" />
    <glyph glyph-name="scaron" unicode="&#x161;" horiz-adv-x="401" 
d="M88 134l13 -65q3 -8 9 -12q27 -21 69 -21q51 0 75 16q28 21 28 56q0 34 -19 46.5t-81 31.5q-8 3 -13 4q-61 19 -87 45t-26 68q0 66 63 101q46 26 119 26q68 0 98 -18q8 -69 11 -110q-4 0 -22.5 -3t-28.5 -4l-14 63q-1 7 -7 11q-20 15 -59 15q-38 0 -62 -19
q-25 -18 -25 -52q0 -29 17.5 -41t81.5 -31q65 -19 96.5 -43.5t31.5 -76.5q0 -68 -64 -106q-42 -25 -121 -25q-74 0 -120 19q-2 19 -7 57.5t-8 58.5q24 6 52 9zM213 542l47 47t46 45q17 -12 29 -27q-13 -15 -50 -59.5t-54 -63.5q-18 -2 -37 0q-62 74 -105 124q10 10 30 26
q14 -14 47 -46t47 -46z" />
    <glyph glyph-name="Tcommaaccent" unicode="&#x162;" horiz-adv-x="567" 
d="M161 47l81 3q4 0 4 3v547q-101 0 -130 -4q-22 -1 -25 -19l-16 -96q-22 1 -56 5q2 27 5 82t5 82q7 0 38 -0.5t54 -0.5h170h168q41 1 86 1q4 -51 8 -163q-16 -2 -56 -6l-15 97q-3 17 -25 19q-39 3 -131 3l-2 -550l92 -3q0 -7 -0.5 -23t-0.5 -24q-17 0 -61 0.5t-65 0.5
q-20 0 -64 -0.5t-65 -0.5q0 32 1 47zM282 -46q23 0 41 -22.5t18 -50.5q0 -90 -92 -143q-4 4 -23 29q55 37 55 81q0 32 -41 41q-4 27 9.5 46t32.5 19z" />
    <glyph glyph-name="tcommaaccent" unicode="&#x163;" horiz-adv-x="358" 
d="M201 -9q-48 0 -77 26q-18 16 -22.5 33t-4.5 45q0 29 0.5 87t0.5 67q0 16 0.5 60t0.5 56h-69q0 19 2 49q22 0 64 2q6 0 6 7q1 15 2 47.5t1 45.5q12 8 29 16t28.5 13t13.5 5q3 0 3 -3q-2 -68 -2 -130q106 0 157 1q0 -7 -3 -52h-156v-112q-1 -41 -1 -148q0 -31 18.5 -46
t46.5 -15q38 0 96 15q2 -8 7 -44q-69 -25 -141 -25zM199 -57q21 0 39 -20t18 -45q0 -78 -90 -129q-16 18 -22 27q53 33 53 72q0 27 -39 37q-4 24 8.5 41t32.5 17z" />
    <glyph glyph-name="Tcaron" unicode="&#x164;" horiz-adv-x="567" 
d="M161 47l81 3q4 0 4 3v547q-101 0 -130 -4q-22 -1 -25 -19l-16 -96q-22 1 -56 5q2 27 5 82t5 82q7 0 38 -0.5t54 -0.5h170h168q41 1 86 1q4 -51 8 -163q-16 -2 -56 -6l-15 97q-3 17 -25 19q-39 3 -131 3l-2 -550l92 -3q0 -7 -0.5 -23t-0.5 -24q-17 0 -61 0.5t-65 0.5
q-20 0 -64 -0.5t-65 -0.5q0 32 1 47zM291 770q78 52 110 73q13 -12 27 -31l-120 -100q-24 0 -34 1q-88 74 -118 97q12 18 26 32q93 -61 109 -72z" />
    <glyph glyph-name="tcaron" unicode="&#x165;" horiz-adv-x="358" 
d="M201 -9q-48 0 -77 26q-18 16 -22.5 33t-4.5 45q0 29 0.5 87t0.5 67q0 16 0.5 60t0.5 56h-69q0 19 2 49q42 2 64 2q6 0 6 7q0 14 1 46.5t2 46.5q12 8 29 16t28.5 13t13.5 5q3 0 3 -3q-2 -68 -2 -130q106 0 157 1q0 -5 -3 -53h-156v-112q-1 -40 -1 -147q0 -31 18.5 -46
t46.5 -15q38 0 96 15q2 -8 7 -44q-69 -25 -141 -25zM328 697q-24 -109 -49 -180q-7 -1 -49 7q12 62 22 175q39 7 76 -2z" />
    <glyph glyph-name="Umacron" unicode="&#x16a;" horiz-adv-x="669" 
d="M185 600l-2 -329q-1 -70 9 -108t32 -66q40 -53 119 -53q72 0 116 46q49 51 49 176q0 228 -1 330q0 4 -4 4l-84 2q0 32 1 47h117h104q0 -30 -1 -46l-64 -3l-2 -335q-1 -140 -70 -213q-60 -62 -164 -62q-112 0 -171 58q-40 38 -53 88.5t-13 126.5v332q0 6 -5 6l-61 2
q0 32 1 46h108q23 0 65.5 0.5t61.5 0.5q0 -32 -1 -47zM453 785q2 -25 0 -49q-33 0 -110 0.5t-115 0.5q-2 22 0 46q38 1 112.5 1t112.5 1z" />
    <glyph glyph-name="umacron" unicode="&#x16b;" horiz-adv-x="528" 
d="M366 43l-5 1q-61 -36 -88 -45t-61 -9q-50 0 -89.5 42.5t-39.5 94.5q0 45 0.5 126.5t0.5 115.5l-61 1q0 16 2 46q12 0 45.5 1t59 2t30.5 1q3 0 3 -3q-3 -114 -3 -239q0 -72 15 -96q23 -36 69 -36q50 0 118 50v86v106.5v80.5l-64 2q0 32 1 47q22 0 79 1t60 1q2 0 2 -3
q0 -56 -1 -177t-1 -180q0 -14 7 -14l67 1q0 -29 -1 -42q-45 -15 -113 -15q-16 16 -32 53zM375 557q2 -23 0 -48q-28 0 -98 0.5t-103 0.5q-2 22 0 45q134 2 201 2z" />
    <glyph glyph-name="Uring" unicode="&#x16e;" horiz-adv-x="669" 
d="M185 600l-2 -329q-1 -70 9 -108t32 -66q40 -53 119 -53q72 0 116 46q49 51 49 176q0 228 -1 330q0 4 -4 4l-83 2q0 32 1 47h116h104q0 -30 -1 -46l-64 -3l-2 -335q-1 -140 -70 -213q-60 -62 -164 -62q-112 0 -171 58q-40 38 -53 88.5t-13 126.5v332q0 6 -5 6l-61 2
q0 32 1 46h108q23 0 66 0.5t62 0.5q0 -32 -1 -47zM344 870q42 0 68.5 -24t26.5 -60q0 -37 -27.5 -61.5t-68.5 -24.5q-42 0 -70 22.5t-28 61.5q0 34 28 60t71 26zM342 833q-21 0 -34 -14.5t-13 -34.5t13.5 -33.5t34.5 -13.5t33.5 13.5t12.5 34.5t-12.5 34.5t-34.5 13.5z" />
    <glyph glyph-name="uring" unicode="&#x16f;" horiz-adv-x="528" 
d="M366 43l-5 1q-61 -36 -88 -45t-61 -9q-50 0 -89.5 42.5t-39.5 94.5q0 45 0.5 126.5t0.5 115.5l-61 1q0 16 2 46q12 0 45.5 1t59 2t30.5 1q3 0 3 -3q-3 -114 -3 -239q0 -72 15 -96q23 -36 69 -36q50 0 118 50v86v106.5v80.5l-64 2q0 32 1 47q21 0 78 1t61 1q2 0 2 -3
q0 -56 -1 -177t-1 -180q0 -14 7 -14l67 1q0 -29 -1 -42q-45 -15 -113 -15q-16 16 -32 53zM251 654q42 0 67.5 -23.5t25.5 -59.5t-27 -61t-68 -25q-40 0 -67.5 23.5t-27.5 60.5q0 33 27.5 59t69.5 26zM249 618q-22 0 -35 -14.5t-13 -34.5t14 -34t35 -14q23 0 35 14t12 35
t-12 34.5t-36 13.5z" />
    <glyph glyph-name="Uhungarumlaut" unicode="&#x170;" horiz-adv-x="669" 
d="M185 600l-2 -329q-1 -70 9 -108t32 -66q40 -53 119 -53q72 0 116 46q49 51 49 176q0 228 -1 330q0 4 -4 4l-83 2q0 32 1 47h116h104q0 -30 -1 -46l-64 -3l-2 -335q-1 -140 -70 -213q-60 -62 -164 -62q-112 0 -171 58q-40 38 -53 88.5t-13 126.5v332q0 6 -5 6l-61 2
q0 32 1 46h108q23 0 66 0.5t62 0.5q0 -32 -1 -47zM373 862q20 -20 36 -44q-71 -50 -144 -102q-5 5 -13 16t-12 15q42 37 133 115zM495 858q14 -14 36 -42q-16 -12 -45 -33t-53 -38.5t-46 -33.5q-6 8 -25 32q63 54 133 115z" />
    <glyph glyph-name="uhungarumlaut" unicode="&#x171;" horiz-adv-x="528" 
d="M366 43l-5 1q-61 -36 -88 -45t-61 -9q-50 0 -89.5 42.5t-39.5 94.5q0 45 0.5 126.5t0.5 115.5l-61 1q0 16 2 46q12 0 45.5 1t59 2t30.5 1q3 0 3 -3q-3 -114 -3 -239q0 -72 15 -96q23 -36 69 -36q50 0 118 50v86v106.5v80.5l-64 2q0 32 1 47q21 0 78 1t61 1q2 0 2 -3
q0 -56 -1 -177t-1 -180q0 -14 7 -14l67 1q0 -29 -1 -42q-45 -15 -113 -15q-16 16 -32 53zM270 638q14 -11 40 -39q-11 -10 -58.5 -51t-73.5 -63q-19 19 -27 28q17 18 58 61t61 64zM396 634q19 -15 40 -39q-9 -8 -130 -115l-28 28q70 74 118 126z" />
    <glyph glyph-name="Uogonek" unicode="&#x172;" horiz-adv-x="669" 
d="M452 13q-45 -26 -76.5 -64t-31.5 -66q0 -20 12.5 -31.5t28.5 -11.5q27 0 51 18q11 -11 19 -29q-41 -41 -92 -41q-36 0 -63.5 23t-27.5 58q0 59 89 121q-130 -3 -192 58q-40 38 -53 88.5t-13 126.5v332q0 6 -5 6l-61 2q0 32 1 47h108h128q0 -31 -1 -47l-88 -3l-2 -329
q-1 -70 9 -108t32 -67q40 -53 119 -53q71 0 116 47q49 51 49 176q0 228 -1 330q0 4 -4 4l-84 2q0 8 0.5 24t0.5 23h117q19 0 54 0.5t50 0.5q0 -31 -1 -47l-64 -3l-2 -335q-1 -140 -70 -213q-21 -21 -52 -39z" />
    <glyph glyph-name="uogonek" unicode="&#x173;" horiz-adv-x="528" 
d="M511 5q-50 -14 -66 -25q-68 -46 -68 -98q0 -20 12.5 -31.5t28.5 -11.5q27 0 51 18q13 -14 18 -29q-39 -41 -91 -41q-35 0 -63 23.5t-28 58.5q0 60 92 122q-16 16 -31 52h-5q-61 -36 -88 -44.5t-61 -8.5q-50 0 -89.5 42.5t-39.5 94.5q0 45 0.5 126.5t0.5 115.5l-61 2
q0 17 2 45q12 0 45.5 1t59 2t30.5 1q3 0 3 -3q-3 -114 -3 -239q0 -72 15 -96q23 -36 69 -36q50 0 118 50v86v106.5v80.5l-64 2q0 32 1 47q21 0 78 1t61 1q2 0 2 -3q0 -56 -1 -177t-1 -180q0 -14 8 -14l66 1q0 -29 -1 -42z" />
    <glyph glyph-name="Ydieresis" unicode="&#x178;" horiz-adv-x="562" 
d="M160 47l79 2q5 1 5 6v196q-20 35 -193 347q-3 3 -5 4l-52 2q0 32 1 47q13 0 47 -0.5t51 -0.5q26 0 73.5 0.5t67.5 0.5q0 -32 -1 -47l-90 -3q55 -109 152 -292h5q100 181 148 288q2 4 -3 4l-81 3q0 31 1 46h124q14 0 44 0.5t42 0.5q0 -31 -1 -46l-51 -4q-31 -53 -100 -174
t-100 -174l-1 -203l92 -3q0 -17 -2 -47q-17 0 -60.5 0.5t-65.5 0.5q-21 0 -64 -0.5t-63 -0.5q0 31 1 47zM228 806q20 0 30.5 -14t10.5 -31q0 -16 -11.5 -29t-30.5 -13t-31.5 12t-12.5 31q0 17 11.5 30.5t33.5 13.5zM397 806q20 0 31 -13.5t11 -30.5q0 -18 -12 -30.5
t-29 -12.5q-21 0 -33.5 13t-12.5 29q0 17 11 31t34 14z" />
    <glyph glyph-name="Zacute" unicode="&#x179;" horiz-adv-x="583" 
d="M128 56l1 -3h66.5h60.5h48.5t44.5 0.5t33 1.5t30.5 3t21.5 4q20 5 27 27l33 102q25 -3 57 -10q-28 -126 -42 -182q-5 0 -54 0.5t-116.5 0.5h-115.5h-176q-9 18 -18 43q48 61 117.5 154t167.5 226.5t124 168.5l-2 5q-39 0 -95.5 0.5t-73.5 0.5q-73 0 -101 -3
q-16 -5 -22 -25l-32 -105q-32 4 -55 9q5 29 15.5 88.5t15.5 88.5q22 0 92 -2h336q13 -29 18 -53q-280 -380 -406 -540zM357 849q18 -23 37 -54q-29 -16 -89.5 -50.5t-78.5 -44.5q-15 20 -23 34q46 34 154 115z" />
    <glyph glyph-name="zacute" unicode="&#x17a;" horiz-adv-x="441" 
d="M121 50l1 -4q139 0 184 4q24 2 31 20l28 79q26 -4 51 -11q-22 -92 -34 -139q-4 0 -23 0.5t-49 0.5h-62h-117h-89q-8 18 -14 39q249 294 279 330l-1 5q-89 0 -159 -2q-23 0 -28 -15l-26 -79q-11 1 -52 9q4 16 13.5 62.5t15.5 70.5q3 0 34.5 -0.5t58.5 -0.5q111 -2 221 0
q8 -20 15 -50q-11 -13 -278 -319zM291 640q16 -13 43 -44q-36 -29 -149 -122q-1 1 -28 31q22 22 67.5 68t66.5 67z" />
    <glyph glyph-name="Zdotaccent" unicode="&#x17b;" horiz-adv-x="583" 
d="M128 56l1 -3h66.5h60.5h48.5t44.5 0.5t33 1.5t30.5 3t21.5 4q20 5 27 27l33 102q25 -3 57 -10q-28 -126 -42 -182q-5 0 -54 0.5t-116.5 0.5h-115.5h-176q-3 7 -9 21.5t-9 21.5q48 61 117.5 154t167.5 226.5t124 168.5l-2 5q-40 0 -95.5 0.5t-72.5 0.5q-74 0 -102 -3
q-15 -5 -21 -25l-32 -105q-29 3 -56 9q16 91 32 177q21 0 91 -2h336q13 -29 18 -53q-280 -380 -406 -540zM309 820q25 0 37 -16t12 -35q0 -23 -15 -38.5t-38 -15.5t-38 15.5t-15 36.5q0 22 15 37.5t42 15.5z" />
    <glyph glyph-name="zdotaccent" unicode="&#x17c;" horiz-adv-x="441" 
d="M121 50l1 -4q139 0 184 4q24 2 31 20l28 79q26 -4 51 -11q-22 -92 -34 -139q-4 0 -23 0.5t-49 0.5h-62h-117h-89q-8 18 -14 39q4 5 119 140t161 190l-2 5q-87 0 -159 -2q-22 0 -27 -15l-26 -79q-13 2 -53 9q20 90 29 133q4 0 35 -0.5t58 -0.5q112 -2 222 0q8 -23 14 -50
q-65 -79 -278 -319zM226 632q25 0 37.5 -16t11.5 -36q0 -23 -15 -38.5t-38 -15.5t-38 15.5t-15 37.5t15 37.5t42 15.5z" />
    <glyph glyph-name="Zcaron" unicode="&#x17d;" horiz-adv-x="583" 
d="M128 56l1 -3h66.5h60.5h48.5t44.5 0.5t33 1.5t30.5 3t21.5 4q20 5 27 27l33 102q25 -3 57 -10q-28 -126 -42 -182q-5 0 -54 0.5t-116.5 0.5h-115.5h-176q-9 18 -18 43q48 61 117.5 154t167.5 226.5t124 168.5l-2 5q-39 0 -95.5 0.5t-73.5 0.5q-73 0 -101 -3
q-16 -5 -22 -25l-32 -105q-32 4 -55 9q5 29 15.5 88.5t15.5 88.5q22 0 92 -2h336q13 -29 18 -53q-280 -380 -406 -540zM311 770q78 52 110 73q13 -12 27 -31q-12 -10 -36.5 -30.5t-45.5 -38t-38 -31.5q-24 0 -35 1q-88 74 -118 97q12 18 26 32q6 -4 47.5 -31t62.5 -41z" />
    <glyph glyph-name="zcaron" unicode="&#x17e;" horiz-adv-x="441" 
d="M121 50l1 -4q139 0 184 4q24 2 31 20l28 79q26 -4 51 -11q-22 -92 -34 -139q-4 0 -23 0.5t-49 0.5h-62h-117h-89q-8 18 -14 39q249 294 279 330l-1 5q-89 0 -159 -2q-23 0 -28 -15l-26 -79q-11 1 -52 9q4 16 13.5 62.5t15.5 70.5q3 0 34.5 -0.5t58.5 -0.5q111 -2 221 0
q8 -20 15 -50q-11 -13 -278 -319zM222 542q16 15 47.5 47t45.5 45q17 -12 29 -27q-16 -19 -53 -63t-51 -61h-37q-13 15 -49 58.5t-55 66.5q14 14 29 26q14 -14 47 -46t47 -46z" />
    <glyph glyph-name="florin" unicode="&#x192;" horiz-adv-x="524" 
d="M442 655q41 0 67 -13q0 -9 -11 -31.5t-20 -31.5q-49 14 -83 14q-47 0 -73 -31q-22 -26 -32 -66.5t-14 -130.5q29 0 92 0.5t98 0.5q0 -28 -3 -50q-133 0 -189 -1q-9 -219 -19 -286q-11 -81 -73.5 -133.5t-131.5 -52.5q-34 0 -58 9q1 10 10.5 30t17.5 30q48 -9 63 -9
q38 0 68 32.5t36 98.5q8 83 13 281h-120q0 20 2 48q80 2 115 2q3 0 5 7q3 93 16.5 134t54.5 80q69 69 169 69z" />
    <glyph glyph-name="Scommaaccent" unicode="&#x218;" horiz-adv-x="492" 
d="M98 180l18 -105q2 -8 8 -11q34 -23 93 -23q77 0 114 39q32 33 32 80q0 56 -26 80.5t-98 57.5q-13 6 -20 9q-74 34 -112.5 73t-38.5 100q0 40 18.5 75.5t46.5 57.5q58 47 163 47q81 0 122 -22q8 -78 11 -148q-7 -1 -25.5 -3.5t-29.5 -3.5l-17 94q-3 9 -6 12q-24 20 -75 20
q-60 0 -94 -30q-38 -33 -38 -83q0 -49 26 -71.5t111 -60.5q82 -36 120 -75.5t38 -103.5q0 -87 -58 -139q-62 -56 -180 -56q-89 0 -147 24q-2 27 -6.5 80.5t-6.5 77.5q36 6 57 8zM244 -52q23 0 41 -22.5t18 -50.5q0 -90 -92 -143q-15 16 -23 29q55 37 55 81q0 32 -41 41
q-4 27 9.5 46t32.5 19z" />
    <glyph glyph-name="scommaaccent" unicode="&#x219;" horiz-adv-x="401" 
d="M87 134l14 -65q3 -8 9 -12q27 -21 69 -21q51 0 75 16q28 21 28 56q0 34 -19 46.5t-81 31.5q-8 3 -13 4q-61 19 -87 45t-26 68q0 66 63 101q46 26 119 26q68 0 98 -18q8 -69 11 -110q-4 0 -22.5 -3t-28.5 -4l-14 63q-1 7 -7 11q-20 15 -59 15q-38 0 -62 -19
q-25 -18 -25 -52q0 -29 17.5 -41t81.5 -31q65 -19 96.5 -43.5t31.5 -76.5q0 -68 -64 -106q-42 -25 -122 -25q-71 0 -120 19q-3 34 -14 116q23 6 51 9zM202 -57q21 0 39 -20t18 -45q0 -79 -90 -128q-14 14 -22 26q53 33 53 73q0 25 -39 37q-4 24 8.5 40.5t32.5 16.5z" />
    <glyph glyph-name="uni021A" unicode="&#x21a;" horiz-adv-x="567" 
d="M160 47l81 3q4 0 4 3v547q-99 0 -130 -4q-22 -1 -25 -19l-16 -96q-24 1 -55 5q1 27 4 82t5 82q7 0 38.5 -0.5t53.5 -0.5h170h169q41 1 87 1q6 -100 8 -163q-9 -1 -56 -6l-16 97q-2 16 -24 19q-41 3 -131 3l-3 -550l92 -3q0 -7 -0.5 -23t-0.5 -24q-17 0 -61 0.5t-65 0.5
q-20 0 -64 -0.5t-65 -0.5v47zM283 -46q22 0 40 -22.5t18 -50.5q0 -89 -91 -143q-15 17 -23 29q54 37 54 81q0 32 -40 41q-4 27 9 46t33 19z" />
    <glyph glyph-name="uni021B" unicode="&#x21b;" horiz-adv-x="358" 
d="M201 -9q-49 0 -77 26q-18 16 -22.5 33t-4.5 45q0 29 0.5 87.5t0.5 67.5q0 16 0.5 60t0.5 56h-69q0 18 2 48q42 2 64 2q6 0 6 7q0 14 1 46.5t2 46.5q12 8 29 16t28.5 13t13.5 5q3 0 3 -3q-2 -68 -2 -131q51 1 157 1q0 -4 -3 -52h-156v-112q-1 -40 -1 -147q0 -31 18.5 -46
t46.5 -15q38 0 96 15q2 -8 7 -44q-69 -25 -141 -25zM199 -57q21 0 39 -20t18 -45q0 -79 -90 -129q-16 18 -22 27q53 33 53 72q0 28 -39 37q-4 24 9 41t32 17z" />
    <glyph glyph-name="circumflex" unicode="&#x2c6;" horiz-adv-x="333" 
d="M167 562q-14 -14 -93 -92q-9 8 -30 26q59 71 105 124q12 1 37 1q14 -16 50.5 -60t53.5 -64q-19 -19 -29 -27q-63 63 -94 92z" />
    <glyph glyph-name="caron" unicode="&#x2c7;" horiz-adv-x="333" 
d="M167 542q15 15 47.5 47t46.5 45q13 -9 29 -27q-17 -19 -54 -63t-51 -60q-17 -2 -37 0q-62 76 -104 124q15 15 30 26l46 -46t47 -46z" />
    <glyph glyph-name="uni02C9" unicode="&#x2c9;" horiz-adv-x="333" 
d="M267 555v-48q-29 0 -98.5 0.5t-102.5 0.5q-2 22 0 45q134 2 201 2z" />
    <glyph glyph-name="breve" unicode="&#x2d8;" horiz-adv-x="333" 
d="M164 487q-43 0 -74.5 28t-40.5 68q15 7 39 13q31 -58 79 -58q50 0 76 54q24 -3 41 -10q-8 -34 -41.5 -64.5t-78.5 -30.5z" />
    <glyph glyph-name="dotaccent" unicode="&#x2d9;" horiz-adv-x="333" 
d="M168 632q25 0 37.5 -16t12.5 -36q-1 -23 -16 -38.5t-37 -15.5q-23 0 -38.5 15.5t-15.5 37.5t15 37.5t42 15.5z" />
    <glyph glyph-name="ring" unicode="&#x2da;" horiz-adv-x="333" 
d="M169 654q42 0 67.5 -23.5t25.5 -59.5t-27 -61t-68 -25q-40 0 -67.5 23.5t-27.5 60.5q0 33 27.5 59t69.5 26zM167 618q-22 0 -35 -14.5t-13 -34.5t14 -34t35 -14q23 0 35 14t12 35t-12 34.5t-36 13.5z" />
    <glyph glyph-name="ogonek" unicode="&#x2db;" horiz-adv-x="333" 
d="M290 4h59q-98 -69 -98 -121q0 -20 12.5 -31.5t28.5 -11.5q29 0 51 18q13 -13 19 -29q-41 -41 -91 -41q-36 0 -63.5 23t-27.5 58q0 67 110 135z" />
    <glyph glyph-name="tilde" unicode="&#x2dc;" horiz-adv-x="333" 
d="M114 596q10 0 20.5 -3.5t15 -6t16.5 -11t13 -9.5q4 -2 9.5 -6.5t9 -7t8 -5.5t9.5 -4t10 -1q15 0 21.5 12.5t9.5 38.5h11.5h14h11.5q-6 -102 -68 -102q-24 0 -63 29q-4 3 -10.5 8t-10.5 7t-9.5 5t-10.5 4.5t-11 1.5q-23 0 -33 -49h-37q8 99 74 99z" />
    <glyph glyph-name="hungarumlaut" unicode="&#x2dd;" horiz-adv-x="333" 
d="M152 638q14 -11 40 -39q-64 -55 -132 -114q-6 5 -15.5 15.5t-12.5 13.5q23 23 66 68t54 56zM278 634q23 -19 40 -39q-62 -54 -130 -115q-24 24 -28 29q21 22 66 69.5t52 55.5z" />
    <glyph glyph-name="pi" unicode="&#x3c0;" horiz-adv-x="543" 
d="M502 410h-66v-273q0 -91 13 -137h-70q-15 30 -15 130v280h-164q-4 -102 -24 -228t-44 -182h-69q26 67 45 187.5t22 222.5q-19 0 -51 -2q-21 -1 -46 -7l-10 44q40 22 127 22h360z" />
    <glyph glyph-name="uni2010" unicode="&#x2010;" horiz-adv-x="315" 
d="M131 213h-99q0 36 1 52q35 1 102 1q26 0 74.5 0.5t73.5 1.5q0 -21 -2 -55h-150z" />
    <glyph glyph-name="figuredash" unicode="&#x2012;" horiz-adv-x="524" 
d="M36 324q76 1 227 1q92 0 228 2q0 -22 -2 -54h-226h-229q0 35 2 51z" />
    <glyph glyph-name="endash" unicode="&#x2013;" horiz-adv-x="500" 
d="M251 213h-219q0 36 1 53h219q90 0 216 2q0 -23 -2 -55h-215z" />
    <glyph glyph-name="emdash" unicode="&#x2014;" horiz-adv-x="1000" 
d="M479 213h-447q0 36 1 53q298 0 446 1q332 0 489 1q0 -23 -2 -55h-487z" />
    <glyph glyph-name="quoteleft" unicode="&#x2018;" horiz-adv-x="202" 
d="M112 471q-24 0 -44.5 23.5t-20.5 56.5q0 50 31 93.5t77 67.5q17 -17 27 -34q-63 -40 -63 -90q0 -31 45 -44q5 -32 -10 -52.5t-42 -20.5z" />
    <glyph glyph-name="quoteright" unicode="&#x2019;" horiz-adv-x="202" 
d="M91 699q24 0 44.5 -23.5t20.5 -56.5q0 -50 -31 -94t-78 -67q-11 14 -26 34q63 42 63 91q0 33 -45 43q-5 32 10 52.5t42 20.5z" />
    <glyph glyph-name="quotesinglbase" unicode="&#x201a;" horiz-adv-x="237" 
d="M113 100q24 0 44.5 -23.5t20.5 -56.5q0 -50 -31 -94t-78 -67q-11 14 -26 34q63 42 63 91q0 32 -45 44q-5 31 10 51.5t42 20.5z" />
    <glyph glyph-name="quotedblleft" unicode="&#x201c;" horiz-adv-x="357" 
d="M110 485q-24 0 -43.5 22.5t-19.5 53.5q0 47 29.5 88.5t74.5 63.5q15 -15 26 -32q-61 -41 -61 -86q0 -29 46 -41q4 -31 -11 -50t-41 -19zM270 485q-23 0 -43 22.5t-20 53.5q0 47 29.5 88.5t74.5 63.5q10 -10 26 -32q-61 -41 -61 -86q0 -28 45 -41q4 -30 -11 -49.5
t-40 -19.5z" />
    <glyph glyph-name="quotedblright" unicode="&#x201d;" horiz-adv-x="357" 
d="M88 699q23 0 43 -22.5t20 -53.5q0 -47 -30 -89t-74 -64q-10 12 -26 33q61 39 61 86q0 30 -45 43q-4 31 10.5 49t40.5 18zM248 699q23 0 43 -22.5t20 -53.5q0 -47 -30 -89t-74 -64q-10 12 -26 33q61 39 61 86q0 29 -46 43q-3 30 12 48.5t40 18.5z" />
    <glyph glyph-name="quotedblbase" unicode="&#x201e;" horiz-adv-x="392" 
d="M111 95q22 0 42 -22.5t20 -53.5q0 -48 -29.5 -89.5t-74.5 -63.5q-10 12 -26 33q61 39 61 86q0 27 -45 43q-4 31 11 49t41 18zM270 95q23 0 43 -22.5t20 -53.5q0 -48 -29.5 -89.5t-74.5 -63.5q-10 12 -26 33q61 39 61 86q0 28 -46 43q-3 30 12 48.5t40 18.5z" />
    <glyph glyph-name="dagger" unicode="&#x2020;" horiz-adv-x="454" 
d="M257 654q2 0 2 -4q-1 -75 -3 -219q26 0 79 0.5t80 0.5q0 -21 -2 -55h-158q-5 -295 -8 -520q-20 -6 -53 -9q-1 87 -4 275t-4 254h-147q0 19 2 53q23 0 69 0.5t67 0.5q8 0 8 7q0 79 -2 191q13 8 39.5 16.5t34.5 8.5z" />
    <glyph glyph-name="daggerdbl" unicode="&#x2021;" horiz-adv-x="454" 
d="M258 654q1 -2 0 -4q-1 -75 -3 -219q26 0 79.5 0.5t81.5 0.5q0 -30 -3 -55h-158q-1 -39 -2 -116.5t-1 -116.5h163q0 -26 -3 -52q-23 0 -79.5 -0.5t-81.5 -0.5q-3 -223 -3 -234q-6 -2 -54 -9q-2 169 -4 242q-20 0 -71 -0.5t-80 -0.5q0 29 3 56q24 0 71 -0.5t70 -0.5
q5 0 5 7q0 88 -2 226h-148q0 4 3 52q90 2 136 2q8 0 8 7q-2 136 -3 194q10 7 37.5 14.5t38.5 7.5z" />
    <glyph glyph-name="bullet" unicode="&#x2022;" horiz-adv-x="308" 
d="M157 363q47 0 72.5 -32.5t25.5 -72.5q0 -43 -28.5 -74t-70.5 -31q-46 0 -74.5 29t-28.5 72q0 45 28.5 77t75.5 32z" />
    <glyph glyph-name="onedotenleader" unicode="&#x2024;" horiz-adv-x="265" 
d="M135 102q26 0 39.5 -17.5t13.5 -37.5q0 -23 -15 -39.5t-39 -16.5q-25 0 -40.5 15.5t-15.5 39.5q0 21 15 38.5t42 17.5z" />
    <glyph glyph-name="twodotenleader" unicode="&#x2025;" horiz-adv-x="529" 
d="M135 102q26 0 39.5 -17.5t13.5 -37.5q0 -23 -15 -39.5t-39 -16.5q-25 0 -40.5 15.5t-15.5 39.5q0 21 15 38.5t42 17.5zM400 102q27 0 40 -17.5t13 -37.5q0 -23 -15 -39.5t-39 -16.5q-25 0 -40.5 15.5t-15.5 39.5q0 21 15 38.5t42 17.5z" />
    <glyph glyph-name="ellipsis" unicode="&#x2026;" horiz-adv-x="794" 
d="M135 102q26 0 39.5 -17.5t13.5 -37.5q0 -23 -15 -39.5t-39 -16.5q-25 0 -40.5 15.5t-15.5 39.5q0 21 15 38.5t42 17.5zM400 102q27 0 40 -17.5t13 -37.5q0 -23 -15 -39.5t-39 -16.5q-25 0 -40.5 15.5t-15.5 39.5q0 21 15 38.5t42 17.5zM665 102q26 0 39.5 -17.5
t13.5 -37.5q0 -23 -15 -39.5t-39 -16.5q-25 0 -40.5 15.5t-15.5 39.5q0 21 15 38.5t42 17.5z" />
    <glyph glyph-name="perthousand" unicode="&#x2030;" horiz-adv-x="1113" 
d="M511 616l-3 3q-64 -2 -219 -4q21 -15 35.5 -48t14.5 -72q0 -84 -51 -137q-39 -39 -100 -39q-53 0 -89 29q-58 45 -58 137q0 79 53 129q40 37 106 39q243 0 360 11q12 -15 21 -30q-29 -51 -176 -317q-97 -179 -187 -343q-24 9 -44 20q81 145 190 347q26 48 147 275z
M192 612q-34 0 -55 -22q-32 -34 -32 -104q0 -76 32 -105q24 -22 54 -22q28 0 49 17q35 31 35 113q0 67 -30 102q-17 21 -53 21zM578 323q57 0 91 -32q50 -47 50 -129q0 -85 -50 -133q-39 -39 -99 -39q-54 0 -91 28q-26 19 -41.5 53.5t-15.5 77.5q0 87 57 137q40 37 99 37z
M931 323q58 0 94 -34q48 -46 48 -127q0 -39 -13.5 -75t-35.5 -57q-40 -40 -100 -40q-55 0 -91 27q-25 19 -41 55t-16 78q0 85 56 136q42 37 99 37zM572 283q-31 0 -54 -23q-32 -36 -32 -109q0 -71 31 -100q21 -21 55 -21q31 0 51 19q32 29 32 106q0 71 -29 105
q-20 23 -54 23zM926 283q-34 0 -54 -23q-32 -37 -32 -108q0 -68 29 -99q22 -23 57 -23q30 0 50 19q33 28 33 109q0 68 -29 102q-18 23 -54 23z" />
    <glyph glyph-name="guilsinglleft" unicode="&#x2039;" horiz-adv-x="256" 
d="M118 223q53 -81 99 -144q-14 -14 -32 -27q-69 76 -141 150q-1 12 -1 37q60 62 141 151q20 -14 32 -28q-78 -109 -98 -139z" />
    <glyph glyph-name="guilsinglright" unicode="&#x203a;" horiz-adv-x="256" 
d="M139 222q-24 36 -99 140q15 15 33 28q47 -52 141 -150q0 -26 -1 -38q-79 -82 -140 -150q-15 11 -32 28q40 55 98 142z" />
    <glyph glyph-name="fraction" unicode="&#x2044;" horiz-adv-x="77" 
d="M-123 -15q-23 9 -40 18q68 119 166 298q70 129 193 358q35 -13 44 -17q-25 -45 -199 -363q-61 -111 -164 -294z" />
    <glyph glyph-name="zero.superior" unicode="&#x2070;" 
d="M295 594q0 -94 -46 -140q-30 -30 -86 -30q-51 0 -82 31q-39 42 -39 125q0 98 49 145q31 31 83 31q55 0 85 -36q36 -43 36 -126zM168 720q-24 0 -38 -23q-23 -31 -23 -115q0 -72 20 -101q13 -21 41 -21q27 0 41 19q21 31 21 107q0 75 -16 107q-15 27 -46 27z" />
    <glyph glyph-name="four.superior" unicode="&#x2074;" 
d="M246 465l42 -1v-10.5v-12.5v-10h-76h-83v33l63 1q3 0 3 2v44h-152l-19 38q14 17 75 97q53 68 86 109q43 0 63 -1q0 -33 -0.5 -101t-0.5 -101h59q0 -26 -1 -40h-59v-47zM195 698h-6q-9 -13 -27 -36t-29 -38q-7 -10 -18.5 -25t-19 -25t-11.5 -16t2 -6h109v146z" />
    <glyph glyph-name="five.superior" unicode="&#x2075;" 
d="M65 591l-4 3q7 66 20 155h98h98q0 -15 -2 -43h-145q-3 -15 -13 -71q26 2 41 2q56 0 91.5 -26t35.5 -71q0 -56 -43 -88q-38 -29 -112 -29q-47 0 -74 6q-6 30 -13 84q31 7 43 8l13 -49q1 -3 4 -6q13 -5 35 -5q38 0 60 17q23 18 23 51q0 31 -23 49t-67 18q-21 0 -66 -5z" />
    <glyph glyph-name="six.superior" unicode="&#x2076;" 
d="M106 602h2q41 30 83 30t69 -24q33 -26 33 -74q0 -55 -40 -85q-32 -25 -85 -25q-54 0 -85 30q-39 37 -39 112q0 102 56 153q42 37 102 37q39 0 64 -9q6 -48 8 -75q-7 -2 -21.5 -4.5t-20.5 -3.5l-11 44q0 3 -4 7q-10 4 -24 4q-31 0 -52 -24q-30 -36 -35 -93zM174 459
q25 0 40 18q16 19 16 49q0 38 -22 55q-12 11 -35 11q-15 0 -34 -9.5t-31 -28.5q-2 -54 25 -79q14 -16 41 -16z" />
    <glyph glyph-name="seven.superior" unicode="&#x2077;" 
d="M236 702l-2 3q-106 1 -126 0q-10 -1 -13 -13l-12 -42q-6 1 -41 6q3 22 15 93h58h167q9 -23 13 -41q-81 -131 -108 -222q-9 -24 -9 -58q-21 -2 -63 -2q0 35 11 64q22 59 110 212z" />
    <glyph glyph-name="eight.superior" unicode="&#x2078;" 
d="M221 603v-4q72 -22 74 -81q0 -41 -35 -68t-98 -27q-62 0 -94 25q-30 22 -30 60q0 59 73 89v4q-57 25 -57 72q0 35 31 58q33 25 89 25q52 0 77 -20q29 -21 29 -54q0 -51 -59 -79zM112 673q0 -32 68 -56q43 21 43 58q0 20 -12 32q-12 14 -40 14q-27 0 -41 -11
q-18 -13 -18 -37zM235 514q0 23 -19.5 37.5t-64.5 30.5q-53 -26 -53 -68q0 -25 20 -41q19 -14 48 -14q28 0 47 12q22 15 22 43z" />
    <glyph glyph-name="nine.superior" unicode="&#x2079;" 
d="M229 579h-3q-37 -30 -81 -30q-47 0 -76 27q-28 26 -28 67q0 50 39 83q32 30 86 30q56 0 87 -33q37 -37 37 -112q0 -102 -56 -151q-41 -36 -103 -36q-40 0 -68 8q-2 12 -6 37t-6 37q13 4 41 8l15 -42q2 -6 6 -7q5 -4 25 -4q37 0 58 24q26 30 33 94zM161 720q-25 0 -40 -18
q-18 -21 -18 -50q0 -30 15 -47q15 -16 44 -16q15 0 34 10t31 27q0 53 -24 78q-18 16 -42 16z" />
    <glyph glyph-name="parenleft.superior" unicode="&#x207d;" horiz-adv-x="230" 
d="M69 580q0 77 37.5 136t87.5 87q10 -12 20 -28q-34 -26 -59.5 -77t-25.5 -116q0 -123 84 -198q-13 -17 -25 -26q-33 25 -55.5 49t-43 70.5t-20.5 102.5z" />
    <glyph glyph-name="parenright.superior" unicode="&#x207e;" horiz-adv-x="230" 
d="M163 583q0 -135 -122 -225q-5 5 -13 15t-10 12q84 77 84 197q0 121 -83 194q2 3 6.5 8.5t8 10t6.5 8.5q49 -27 86 -85t37 -135z" />
    <glyph glyph-name="n.superior" unicode="&#x207f;" horiz-adv-x="427" 
d="M78 591l-59 1q0 23 1 34q14 2 40.5 7t47 9t23.5 4q2 0 2 -2q5 -35 6 -44l1 -1q52 32 74 40t49 8q49 0 79 -50q15 -27 15 -59q0 -66 -2 -172l50 -2q0 -25 -1 -37h-83h-73v37l43 1q3 1 3 4v127q0 58 -9 74q-16 27 -51 27q-18 0 -45 -12t-48 -29q0 -28 -0.5 -96t-0.5 -94
l53 -2q0 -5 -0.5 -18t-0.5 -19h-86h-77q0 25 1 37l46 2q3 0 3 3z" />
    <glyph glyph-name="zero.inferior" unicode="&#x2080;" 
d="M295 54q0 -94 -46 -140q-30 -30 -86 -30q-51 0 -82 31q-39 42 -39 125q0 98 49 145q31 31 83 31q55 0 85 -36q36 -43 36 -126zM168 180q-24 0 -38 -23q-23 -31 -23 -115q0 -72 20 -101q13 -21 41 -21q27 0 41 19q21 31 21 107q0 75 -16 107q-15 27 -46 27z" />
    <glyph glyph-name="one.inferior" unicode="&#x2081;" 
d="M210 -71l77 -1q0 -25 -1 -37h-106h-116q0 24 1 36l83 2q2 0 2 2v219q-44 -9 -85 -20q-1 6 -3.5 19t-3.5 19q28 9 65.5 22.5t59.5 21.5t27 8q1 0 1 -3q0 -46 -0.5 -143.5t-0.5 -144.5z" />
    <glyph glyph-name="two.inferior" unicode="&#x2082;" 
d="M279 122q0 -66 -98 -145q-11 -9 -28 -21.5t-22 -16.5l1 -5q19 0 79 2t71 2q3 0 3 -2q-1 -7 -2 -22t-1 -22h-151h-79q-6 14 -11 32q61 42 93 70q27 24 38.5 36t27 38t15.5 51t-16 45q-15 15 -45 15t-46 -13q-3 -2 -3 -6l-9 -53q-5 0 -13.5 1t-15.5 1.5t-13 0.5q1 16 3 46
t2 43q46 19 101 19q60 0 88 -25q31 -29 31 -71z" />
    <glyph glyph-name="three.inferior" unicode="&#x2083;" 
d="M88 -16l12 -49q2 -4 4 -5q14 -9 42 -9q35 0 55 14q22 17 22 44t-23 42.5t-61 15.5h-38q-1 13 -1 38q115 -1 115 58q0 22 -14 33q-13 13 -47 13q-28 0 -45 -11q-3 -3 -3 -6l-8 -47q-14 0 -42 2q2 26 4 81q41 18 104 18q59 0 87 -21q28 -22 28 -52q0 -58 -72 -79v-4
q40 -5 60.5 -27.5t20.5 -49.5q0 -47 -42 -74q-35 -25 -106 -25q-55 0 -84 7q-8 52 -11 86q15 3 43 7z" />
    <glyph glyph-name="four.inferior" unicode="&#x2084;" 
d="M246 -75l42 -1v-10.5v-12.5v-10h-76h-83v33l63 1q3 0 3 2v44h-152l-19 38q14 17 75 97q53 68 86 109q43 0 63 -1q0 -33 -0.5 -101t-0.5 -101h59q0 -26 -1 -40h-59v-47zM195 158h-6q-9 -13 -27 -36t-29 -38q-7 -10 -18.5 -25t-19 -25t-11.5 -16t2 -6h109v146z" />
    <glyph glyph-name="five.inferior" unicode="&#x2085;" 
d="M65 51l-4 3q7 66 20 155h98h98q0 -15 -2 -43h-145q-3 -15 -13 -71q26 2 41 2q56 0 91.5 -26t35.5 -71q0 -55 -43 -87q-38 -29 -112 -29q-47 0 -74 6q-5 27 -13 83q31 7 43 8l13 -48q1 -3 4 -6q13 -5 35 -5q40 0 60 17q23 18 23 51q0 31 -23 48.5t-67 17.5q-21 0 -66 -5z
" />
    <glyph glyph-name="six.inferior" unicode="&#x2086;" 
d="M106 62h2q39 30 83 30q42 0 69 -24q33 -26 33 -74q0 -55 -40 -85q-32 -25 -85 -25q-54 0 -85 30q-39 37 -39 112q0 102 56 153q42 37 102 37q39 0 64 -9q6 -48 8 -75q-7 -2 -21.5 -4.5t-20.5 -3.5l-11 44q0 3 -4 7q-10 4 -24 4q-31 0 -52 -24q-30 -36 -35 -93zM174 -81
q25 0 40 18q16 19 16 49q0 39 -22 55q-12 11 -35 11q-15 0 -34 -9.5t-31 -28.5q-2 -54 25 -79q14 -16 41 -16z" />
    <glyph glyph-name="seven.inferior" unicode="&#x2087;" 
d="M236 162l-2 3q-106 1 -126 0q-10 -1 -13 -13l-12 -42q-6 1 -41 6q3 22 15 93h58h167q9 -23 13 -41q-81 -131 -108 -222q-9 -24 -9 -58q-21 -2 -63 -2q0 35 11 64q22 59 110 212z" />
    <glyph glyph-name="eight.inferior" unicode="&#x2088;" 
d="M221 64v-4q72 -22 74 -81q0 -42 -35 -68q-35 -27 -98 -27q-62 0 -94 25q-30 21 -30 60q0 59 73 88v4q-57 27 -57 72q0 35 31 58q33 25 89 25q52 0 77 -20q29 -21 29 -54q0 -52 -59 -78zM112 133q0 -32 68 -56q43 22 43 58q0 20 -12 32q-12 14 -40 14q-29 0 -41 -11
q-18 -13 -18 -37zM235 -25q0 23 -19 37t-65 30q-53 -25 -53 -67q0 -25 20 -41q19 -14 48 -14q28 0 47 12q22 15 22 43z" />
    <glyph glyph-name="nine.inferior" unicode="&#x2089;" 
d="M229 39h-3q-37 -30 -81 -30q-47 0 -76 27q-28 26 -28 68q0 50 39 83q32 30 86 30q56 0 87 -33q37 -37 37 -112q0 -103 -56 -152q-41 -36 -103 -36q-40 0 -68 8q-2 12 -6 37t-6 37q13 4 41 8l15 -42q2 -6 6 -7q5 -4 25 -4q37 0 58 24q26 30 33 94zM161 181q-25 0 -40 -18
q-18 -21 -18 -50q0 -30 15 -48q15 -16 44 -16q15 0 34 10t31 27q0 54 -24 79q-18 16 -42 16z" />
    <glyph glyph-name="parenleft.inferior" unicode="&#x208d;" horiz-adv-x="230" 
d="M69 40q0 77 37.5 136t87.5 87q10 -12 20 -28q-34 -26 -59.5 -77t-25.5 -116q0 -123 84 -198q-13 -17 -25 -26q-33 25 -55.5 49t-43 70.5t-20.5 102.5z" />
    <glyph glyph-name="parenright.inferior" unicode="&#x208e;" horiz-adv-x="230" 
d="M163 43q0 -135 -122 -225q-5 5 -13 15t-10 12q84 77 84 197q0 121 -83 194q2 3 6.5 8.5t8 10t6.5 8.5q49 -27 86 -85t37 -135z" />
    <glyph glyph-name="colonmonetary" unicode="&#x20a1;" horiz-adv-x="528" 
d="M340 33l-10 -110q-13 -1 -42 -1l11 109q-39 2 -64 8l-12 -116q-13 -1 -41 -1l13 129q-74 28 -114 92.5t-40 142.5q0 105 54.5 188.5t147.5 112.5l11 121q21 4 45 3l-11 -113q31 6 62 6l10 104q20 5 45 3l-11 -109q74 -3 115 -29q0 -12 -10.5 -31.5t-21.5 -29.5
q-44 30 -88 36l-45 -464q59 4 135 34q9 -32 11 -47q-89 -34 -150 -38zM303 84l43 469q-30 2 -63 -5l-43 -453q32 -10 63 -11zM200 113l38 420q-52 -26 -86 -87t-34 -140q0 -73 20 -117t62 -76z" />
    <glyph glyph-name="Euro" unicode="&#x20ac;" horiz-adv-x="524" 
d="M2 343v42h52q27 116 119 194q91 75 212 75q70 0 114 -22q4 -49 10 -167q-47 -6 -56 -6l-16 107q-2 11 -8 15q-28 18 -69 18q-37 0 -76.5 -17t-68.5 -47q-61 -63 -80 -150h251v-42h-257q-2 -22 -2 -35q0 -24 1 -35h258v-42l-252 1q10 -67 54 -117q25 -28 68 -48t87 -20
q69 0 161 42q10 -31 12 -51q-43 -19 -60.5 -26t-53 -14.5t-73.5 -7.5q-104 0 -181 60q-84 66 -100 182h-46v41h41v20q0 29 4 50h-45z" />
    <glyph glyph-name="uni2113" unicode="&#x2113;" horiz-adv-x="478" 
d="M412 138l38 -34q-66 -114 -187 -114q-72 0 -110.5 44t-43.5 116q0 5 -1 8q-11 -8 -30.5 -22t-22.5 -16l-23 42q59 43 76 58v263q0 106 40 157t107 51q54 0 86.5 -40.5t32.5 -105.5q0 -164 -196 -341v-14q0 -138 101 -138q76 0 133 86zM178 498v-223q133 138 133 268
q0 94 -64 94q-29 0 -49 -35t-20 -104z" />
    <glyph glyph-name="trademark" unicode="&#x2122;" horiz-adv-x="620" 
d="M74 430l36 1v188q-30 0 -47 -3l-7 -49q-6 1 -17 1t-16 1q1 36 3 81q37 -1 112 -1q19 0 53 0.5t51 0.5q2 -45 3 -81q-8 0 -34 -2l-6 49q-18 3 -47 3v-188h38v-32q-8 0 -28 0.5t-32 0.5q-11 0 -32 -0.5t-30 -0.5v31zM267 430l32 1q1 60 1 188h-33q0 21 1 30h95
q8 -25 28.5 -89t30.5 -93h5q6 17 19.5 57.5t24.5 74t16 50.5h93q0 -19 -1 -30h-33q1 -61 1 -188l33 -1v-31q-8 0 -26 0.5t-28 0.5q-9 0 -24 -0.5t-21 -0.5q0 20 1 31l23 1q2 102 2 156h-5q-25 -74 -65 -176h-32q-34 87 -63 179h-5q1 -48 1 -159l24 -1v-31q-6 0 -21.5 0.5
t-23.5 0.5q-9 0 -25.5 -0.5t-24.5 -0.5v31z" />
    <glyph glyph-name="Omega" unicode="&#x2126;" horiz-adv-x="698" 
d="M657 61l1 -61h-239v48q63 43 105 121t42 171q0 99 -57 179t-157 80q-101 0 -160.5 -78.5t-59.5 -182.5q0 -89 43 -169.5t104 -120.5v-48h-238v61h139v4q-55 47 -90.5 119t-35.5 159q0 140 85.5 229t213.5 89q131 0 211 -88t80 -222q0 -177 -127 -286v-4h140z" />
    <glyph glyph-name="estimated" unicode="&#x212e;" horiz-adv-x="830" 
d="M781 307h-592q-5 0 -5 -5v-178q0 -13 8 -21q91 -97 225 -97q141 0 236 108h53q-51 -59 -127 -93.5t-163 -34.5q-152 0 -259 96.5t-107 232.5t107 232.5t258 96.5q152 0 259 -96.5t107 -232.5v-8zM647 330v180q0 12 -9 21q-93 93 -222 93q-131 0 -223 -95q-9 -9 -9 -23
v-176q0 -5 5 -5h454q4 0 4 5z" />
    <glyph glyph-name="onethird" unicode="&#x2153;" horiz-adv-x="733" 
d="M208 365l77 -1q0 -25 -1 -37h-106h-116q0 24 1 36l83 2q2 0 2 2v219q-44 -9 -85 -20q-1 6 -3.5 19t-3.5 19q28 9 65.5 22.5t59.5 21.5t27 8q1 0 1 -3q0 -46 -0.5 -143.5t-0.5 -144.5zM206 -15q-21 7 -42 18q86 150 166 298q70 129 193 358q36 -12 46 -17
q-39 -70 -107 -195t-92 -168q-45 -83 -164 -294zM480 92l12 -49q2 -4 4 -5q14 -9 42 -9q35 0 55 14q22 17 22 44q0 28 -23 43.5t-61 15.5h-39v38q115 -1 115 58q0 22 -14 33q-13 13 -47 13q-28 0 -45 -11q-3 -3 -3 -6l-8 -47q-14 0 -42 2q2 26 4 81q41 18 104 18
q61 0 87 -21q28 -21 28 -52q0 -58 -72 -79v-4q40 -5 60.5 -27.5t20.5 -49.5q0 -48 -42 -75q-35 -25 -106 -25q-54 0 -85 7q-1 7 -4.5 38t-5.5 49q23 5 43 6z" />
    <glyph glyph-name="twothirds" unicode="&#x2154;" horiz-adv-x="733" 
d="M279 557q0 -66 -98 -145q-12 -10 -29.5 -22.5t-20.5 -15.5l1 -5q19 0 79 2t71 2q3 0 3 -2q-1 -7 -2 -22t-1 -22h-151h-79q-6 14 -11 32q61 42 93 70q27 24 38.5 36t27 38t15.5 51q0 27 -16 45q-14 15 -45 15q-30 0 -46 -13q-3 -1 -3 -6l-9 -53l-42 3q1 16 3 46t2 43
q42 19 101 19q61 0 88 -25q31 -29 31 -71zM208 -15q-21 7 -42 18q80 140 166 297q81 151 193 359q36 -12 46 -17q-42 -75 -119.5 -217.5t-79.5 -146.5q-15 -26 -76 -135t-88 -158zM482 92l11 -49q2 -4 4 -5q15 -9 43 -9q35 0 55 14q22 17 22 44q0 28 -23 43.5t-61 15.5h-39
v12v14.5v11.5q115 -1 115 58q0 22 -14 33q-13 13 -47 13q-28 0 -45 -11q-3 -3 -3 -6l-8 -47q-14 0 -42 2q2 26 4 81q41 18 104 18q61 0 87 -21q28 -21 28 -52q0 -58 -72 -79v-4q40 -5 60.5 -27.5t20.5 -49.5q0 -48 -42 -75q-35 -25 -107 -25q-55 0 -84 7q-2 16 -6 47.5
t-5 39.5q22 4 44 6z" />
    <glyph glyph-name="oneeighth" unicode="&#x215b;" horiz-adv-x="733" 
d="M212 365l77 -1q0 -25 -1 -37h-106h-116q0 24 1 36l83 2q2 0 2 2v219q-44 -9 -85 -20q-1 6 -3.5 19t-3.5 19q28 9 65.5 22.5t59.5 21.5t27 8q1 0 1 -3q0 -46 -0.5 -143.5t-0.5 -144.5zM210 -15q-21 7 -42 18q68 119 166 298q70 129 193 358q36 -12 46 -17
q-39 -70 -107 -195t-92 -168q-61 -111 -164 -294zM613 172v-4q73 -22 73 -81q0 -42 -35 -68q-35 -27 -98 -27q-61 0 -93 24q-30 22 -30 61q0 58 72 89v4q-57 25 -57 72q0 35 31 58q33 25 90 25q52 0 77 -20q29 -21 29 -55q0 -50 -59 -78zM503 242q0 -32 69 -57q43 22 43 59
q0 20 -12 32q-12 14 -41 14q-27 0 -41 -11q-18 -14 -18 -37zM626 83q0 23 -19 37.5t-64 30.5q-53 -27 -53 -68q0 -25 20 -41q19 -14 48 -14q28 0 46 12q22 15 22 43z" />
    <glyph glyph-name="threeeighths" unicode="&#x215c;" horiz-adv-x="733" 
d="M96 419l12 -49q2 -4 4 -5q14 -9 42 -9q35 0 55 14q22 17 22 44q0 28 -23 43.5t-61 15.5h-39q-1 13 -1 38q115 -1 115 58q0 22 -14 33q-13 13 -47 13q-28 0 -45 -11l-3 -6l-7 -47q-13 0 -43 2q2 26 4 81q41 18 104 18q61 0 87 -21q28 -21 28 -52q0 -58 -71 -79v-4
q40 -5 60.5 -27.5t20.5 -49.5q0 -48 -42 -75q-35 -25 -106 -25q-55 0 -84 7q-7 50 -11 86q15 3 43 7zM205 -15q-21 7 -42 18q90 157 165 297q81 151 193 359q36 -12 46 -17q-70 -125 -199 -364q-27 -49 -86.5 -155.5t-76.5 -137.5zM607 172v-4q73 -22 73 -81q0 -42 -35 -68
q-35 -27 -98 -27q-61 0 -93 24q-30 22 -30 61q0 58 72 89v4q-57 25 -57 72q0 35 31 58q33 25 90 25q52 0 77 -20q29 -21 29 -55q0 -50 -59 -78zM497 242q0 -32 69 -57q43 22 43 59q0 20 -12 32q-12 14 -41 14q-27 0 -41 -11q-18 -14 -18 -37zM620 83q0 23 -19 37.5t-64 30.5
q-53 -27 -53 -68q0 -25 20 -41q19 -14 48 -14q28 0 46 12q22 15 22 43z" />
    <glyph glyph-name="fiveeighths" unicode="&#x215d;" horiz-adv-x="733" 
d="M78 486l-4 4q7 66 20 155h98h98q0 -15 -2 -43h-145q-3 -15 -13 -71q26 2 41 2q56 0 91.5 -26t35.5 -71q0 -56 -43 -88q-38 -29 -112 -29q-47 0 -74 6q-6 30 -13 84q31 7 43 8l13 -49q1 -3 4 -6q12 -5 35 -5q38 0 60 17q23 18 23 52q0 31 -23 48.5t-67 17.5q-39 0 -66 -6z
M202 -15q-21 7 -42 18q68 119 166 298q70 129 193 358q36 -12 46 -17q-25 -45 -199 -363q-26 -48 -85.5 -154t-78.5 -140zM604 172v-4q72 -22 74 -81q0 -42 -35 -68q-35 -27 -98 -27q-61 0 -93 24q-30 22 -30 61q0 58 72 89v4q-57 25 -57 72q0 35 31 58q33 25 89 25
q52 0 77 -20q29 -21 29 -55q0 -50 -59 -78zM495 242q0 -17 16 -30t52 -27q43 22 43 59q0 20 -12 32q-12 14 -40 14q-27 0 -41 -11q-18 -13 -18 -37zM618 83q0 23 -19 37.5t-64 30.5q-53 -27 -53 -68q0 -25 20 -41q19 -14 48 -14q28 0 46 12q22 15 22 43z" />
    <glyph glyph-name="seveneighths" unicode="&#x215e;" horiz-adv-x="733" 
d="M267 598l-2 3h-126q-10 -1 -13 -13l-12 -43q-2 0 -17.5 3t-23.5 4q3 22 15 93h58h167q8 -20 14 -42q-81 -127 -109 -221q-9 -26 -9 -59q-42 -2 -63 -2q0 35 11 64q23 62 110 213zM174 -15q-21 7 -42 18q68 119 166 298q70 129 193 358q36 -12 46 -17q-25 -45 -199 -363
q-26 -48 -85.5 -154t-78.5 -140zM577 172v-3q73 -24 73 -82q0 -42 -35 -68q-35 -27 -98 -27q-61 0 -93 24q-30 22 -30 61q0 58 72 89v4q-57 27 -57 72q0 35 31 58q33 25 90 25q52 0 77 -20q29 -21 29 -54q0 -51 -59 -79zM467 242q0 -32 69 -56q43 21 43 58q0 20 -12 32
q-12 14 -41 14t-41 -11q-18 -14 -18 -37zM590 83q0 23 -19 37.5t-64 30.5q-53 -27 -53 -68q0 -25 20 -41q19 -14 48 -14q28 0 46 12q22 15 22 43z" />
    <glyph glyph-name="partialdiff" unicode="&#x2202;" horiz-adv-x="523" 
d="M90 610l-23 48q74 50 162 50q104 0 177.5 -90t73.5 -250q0 -177 -75.5 -275t-182.5 -98q-91 0 -139.5 59t-48.5 143q0 98 62 165.5t150 67.5q55 0 100.5 -27t59.5 -57q1 -1 2 -1t1 1q1 10 1 34q0 127 -56 198t-130 71q-79 0 -134 -39zM254 373q-61 0 -104 -50.5
t-43 -124.5q0 -66 33 -105t88 -39h1q66 0 113 64.5t58 156.5q-16 41 -55 69.5t-91 28.5z" />
    <glyph glyph-name="Delta" unicode="&#x2206;" horiz-adv-x="613" 
d="M37 0v44l229 607h82l227 -606v-45h-538zM118 63h373l-138 371q-38 103 -47 141h-4q-14 -48 -42 -126z" />
    <glyph glyph-name="product" unicode="&#x220f;" horiz-adv-x="611" 
d="M501 587v-652h-72v652h-246v-652h-72v652h-89v62h568v-62h-89z" />
    <glyph glyph-name="summation" unicode="&#x2211;" horiz-adv-x="509" 
d="M19 -65v46l247 309l-234 308v51h441v-63h-342v-4l220 -289l-231 -291v-4h385v-63h-486z" />
    <glyph glyph-name="minus" unicode="&#x2212;" horiz-adv-x="524" 
d="M460 208h-398q0 19 2 53q64 1 201.5 2t196.5 1q2 -26 -2 -56z" />
    <glyph glyph-name="uni2215" unicode="&#x2215;" horiz-adv-x="77" 
d="M-123 -15q-23 9 -40 18q68 119 166 298q70 129 193 358q35 -13 44 -17q-25 -45 -199 -363q-61 -111 -164 -294z" />
    <glyph glyph-name="uni2219" unicode="&#x2219;" horiz-adv-x="245" 
d="M125 316q27 0 40 -17.5t13 -38.5q0 -22 -15 -38.5t-39 -16.5q-25 0 -40.5 15.5t-15.5 38.5q0 22 15 39.5t42 17.5z" />
    <glyph glyph-name="radical" unicode="&#x221a;" horiz-adv-x="543" 
d="M558 808l-223 -896h-57l-155 416l-71 -30l-18 44l129 54l123 -344q13 -40 16 -52h1q9 44 11 52l183 756h61z" />
    <glyph glyph-name="infinity" unicode="&#x221e;" horiz-adv-x="715" 
d="M531 118q-31 0 -63.5 16.5t-52 33t-49.5 46.5l-9 9q-62 -61 -93 -79q-43 -26 -89 -26q-61 0 -100 40t-39 103q0 59 42.5 101t104.5 42q11 0 22 -2t20 -4t20 -8t17.5 -9t18 -12t16 -12.5t16.5 -14.5t15 -13.5t15.5 -15l14.5 -14.5q40 39 55 52.5t52.5 33t74.5 19.5
q61 0 100 -40t39 -103q0 -59 -42.5 -101t-105.5 -42zM534 173q37 0 62 26t25 62q0 38 -24 63t-61 25q-26 0 -54.5 -15.5t-44.5 -30.5t-42 -42l22 -22t27 -25.5t25 -19t32 -16.5t33 -5zM180 173q26 0 55 16t43.5 30t42.5 42q-11 10 -33 32q-58 56 -106 56q-37 0 -62.5 -26
t-25.5 -62q0 -38 24.5 -63.5t61.5 -24.5z" />
    <glyph glyph-name="integral" unicode="&#x222b;" horiz-adv-x="334" 
d="M309 771l-11 -50q-13 4 -29 4q-29 0 -45 -20q-30 -36 -30 -157q0 -70 5 -232t5 -234q0 -134 -42 -186q-33 -42 -88 -42q-34 0 -51 10l11 49q20 -6 36 -6q26 0 43 20q31 38 31 155q0 74 -5.5 237.5t-5.5 233.5q0 137 50 190q34 35 84 35q25 0 42 -7z" />
    <glyph glyph-name="approxequal" unicode="&#x2248;" horiz-adv-x="524" 
d="M436 353l32 -35q-51 -59 -118 -59q-24 0 -56 10q-9 3 -24 9t-17 7q-28 13 -38 16q-19 8 -45 8q-45 0 -87 -44l-30 36q54 58 118 58q23 0 55 -10q8 -3 22 -9t19 -8t17 -7t20 -8q26 -8 46 -8q42 0 86 44zM440 205l31 -35q-51 -59 -118 -59q-27 0 -54 9q-9 3 -24 9.5
t-18 7.5q-25 11 -39 16q-19 8 -45 8q-43 0 -87 -44l-30 36q52 58 118 58q27 0 54 -9q21 -8 43 -18q5 -2 17 -7t19 -8q23 -9 46 -9q46 0 87 45z" />
    <glyph glyph-name="notequal" unicode="&#x2260;" horiz-adv-x="524" 
d="M312 283l-35 -95h186q0 -17 -2 -53q-31 0 -99 -0.5t-105 -0.5q-15 -41 -35 -97q-38 15 -49 20q9 24 27 76q-94 0 -137 -1q-2 28 2 56h155q12 31 34 95h-191q0 19 2 53q31 0 101 0.5t107 0.5q7 19 18.5 52.5t15.5 44.5q18 -6 51 -21q-15 -45 -27 -75q24 0 68 0.5t64 0.5
q2 -26 -2 -56h-149z" />
    <glyph glyph-name="lessequal" unicode="&#x2264;" horiz-adv-x="524" 
d="M173 344q15 -14 121.5 -102.5t111.5 -92.5q-20 -29 -31 -40q-23 18 -120.5 93.5t-150.5 116.5q0 8 -0.5 24t-0.5 23q104 75 274 201q17 -21 30 -42q-8 -6 -62.5 -48t-106 -82t-65.5 -51zM65 -3q0 51 3 55h396q0 -18 -2 -52q-289 0 -397 -3z" />
    <glyph glyph-name="greaterequal" unicode="&#x2265;" horiz-adv-x="524" 
d="M345 337q-54 45 -234 189q14 24 30 41q114 -85 273 -205v-47q-94 -71 -272 -205q-12 12 -32 40q219 174 235 187zM60 -2q0 50 3 54q272 0 396 1q0 -19 -2 -53q-323 0 -397 -2z" />
    <glyph glyph-name="lozenge" unicode="&#x25ca;" horiz-adv-x="504" 
d="M460 320l-177 -349h-61l-177 349l177 350h61zM392 319l-131 269q-8 16 -9 20h-2q0 -2 -2 -5t-4 -7.5t-3 -7.5l-129 -266l132 -270q4 -8 8 -20h2q2 6 10 20z" />
    <glyph glyph-name="Euro.fitted" unicode="&#xe000;" horiz-adv-x="615" 
d="M44 343v42h52q27 117 118 194q91 75 225 75q82 0 126 -22q6 -81 9 -167q-47 -6 -56 -6l-16 107q-2 12 -8 15q-27 18 -81 18q-96 0 -157 -64q-61 -63 -80 -150h275v-42h-281q-2 -22 -2 -35q0 -24 1 -35h282v-42l-276 1q10 -67 54 -117q27 -31 72 -49.5t94 -18.5
q81 0 175 42q10 -41 12 -51q-120 -48 -201 -48q-114 0 -191 60q-83 64 -100 182h-46v41h41v20q0 29 4 50h-45z" />
    <glyph glyph-name="Euro.oldstyle" unicode="&#xe001;" horiz-adv-x="521" 
d="M22 249v38h47q20 96 100 160q75 59 192 59q71 0 110 -16q9 -128 9 -139q-30 -3 -56 -6l-13 85q-2 11 -7 12q-23 12 -63 12q-77 0 -127 -47q-51 -49 -64 -120l242 1v-39h-246v-18q0 -14 2 -34h243v-39l-234 1q10 -33 37 -65q47 -50 135 -50q64 0 146 30q7 -29 11 -49
q-102 -35 -172 -35q-102 0 -166 47q-60 46 -78 122h-48v39l41 -1q-1 8 -1 22q0 21 1 30h-41z" />
    <glyph glyph-name="cent.fitted" unicode="&#xe005;" horiz-adv-x="482" 
d="M44 298q0 89 55.5 154.5t148.5 79.5q0 69 1 102q21 5 51 7q-1 -16 -1.5 -51.5t-0.5 -52.5q5 1 19 1q60 0 112 -25q0 -13 -10.5 -33t-21.5 -26q-58 31 -101 31q0 -53 -2 -163.5t-2 -163.5q60 3 133 34q4 -10 13 -42q-79 -36 -146 -42q0 -20 -0.5 -55.5t-0.5 -50.5
q-14 -2 -48 -4q0 69 1 108q-86 3 -143 52t-57 140zM118 314q0 -76 38 -117q33 -33 87 -38q1 52 2 162t1 162q-58 -9 -93 -59.5t-35 -109.5z" />
    <glyph glyph-name="degree.oldstyle" unicode="&#xe006;" horiz-adv-x="314" 
d="M159 609q49 0 79 -29t30 -74t-32 -76t-79 -31q-46 0 -78 28t-32 75q0 42 32.5 74.5t79.5 32.5zM157 567q-25 0 -40 -19t-15 -45q0 -27 16 -44t40 -17q26 0 40.5 17.5t14.5 44.5q0 28 -14.5 45.5t-41.5 17.5z" />
    <glyph glyph-name="dollar.fitted" unicode="&#xe007;" horiz-adv-x="465" 
d="M45 450q0 33 18.5 64.5t48.5 51.5q47 32 112 36q0 18 0.5 52t0.5 50q20 5 51 7q-2 -55 -3 -107q87 1 139 -29q0 -11 -10.5 -31t-21.5 -26q-60 35 -109 39q-2 -143 -4 -203q80 -25 120.5 -59t40.5 -93q0 -76 -54 -122q-50 -41 -126 -48q0 -17 -0.5 -50.5t-0.5 -50.5
q-12 -1 -47 -4q0 17 0.5 51t0.5 52q-44 -2 -96 8.5t-85 29.5q12 39 37 56q77 -46 144 -48q2 66 4 222q-79 27 -119.5 59t-40.5 93zM114 459q0 -37 24 -56t81 -37q2 143 3 191q-48 -4 -74 -26q-34 -25 -34 -72zM361 184q0 42 -25 63t-83 40q-2 -146 -4 -209q50 6 78 29
q34 28 34 77z" />
    <glyph glyph-name="florin.fitted" unicode="&#xe00a;" horiz-adv-x="468" 
d="M412 655q41 0 67 -13q0 -9 -11 -31.5t-20 -31.5q-49 14 -83 14q-47 0 -73 -31q-22 -26 -32 -66.5t-14 -130.5q29 0 92 0.5t98 0.5q0 -28 -3 -50q-133 0 -189 -1q-9 -219 -19 -286q-11 -81 -73.5 -133.5t-131.5 -52.5q-34 0 -58 9q1 10 10.5 30t17.5 30q48 -9 63 -9
q38 0 68 32.5t36 98.5q8 101 13 281h-120q0 20 2 48q80 2 115 2q3 0 5 7q3 93 16.5 134t54.5 80q69 69 169 69z" />
    <glyph glyph-name="florin.oldstyle" unicode="&#xe00b;" horiz-adv-x="425" 
d="M360 506q38 0 60 -10q0 -11 -9 -31t-18 -28q-36 11 -69 11q-46 0 -65 -26q-33 -39 -34 -150q23 0 75 0.5t82 0.5q0 -19 -2 -49h-156q-10 -188 -16 -229q-9 -62 -62.5 -108.5t-113.5 -46.5q-34 0 -54 8q0 27 25 57q26 -8 52 -8q78 0 86 108q8 90 10 219h-99q0 8 0.5 24
t0.5 23q17 0 49 0.5t47 0.5q4 0 4 6q3 73 15 105.5t46 65.5q58 57 146 57z" />
    <glyph glyph-name="numbersign.oldstyle" unicode="&#xe00c;" horiz-adv-x="528" 
d="M199 494q19 2 54 2q-8 -48 -26 -146h115q14 75 24 145q18 1 54 1q-4 -22 -12.5 -70.5t-12.5 -74.5h102q0 -26 -3 -47h-109q-4 -25 -12 -71.5t-11 -66.5h111q0 -24 -3 -46q-16 0 -55 -0.5t-61 -0.5q-5 -27 -14.5 -81.5t-14.5 -81.5q-33 -2 -49 -1q4 27 13 82t14 82h-116
q-20 -118 -28 -163q-31 -2 -49 -1q17 101 26 164q-17 0 -52.5 -0.5t-50.5 -0.5q0 21 2 49q38 -1 110 -1q8 46 22 138h-111q0 19 2 45q40 1 117 1q13 72 24 144zM218 304q-17 -109 -22 -138h116l21 138h-115z" />
    <glyph glyph-name="bullet.001" unicode="&#xe00d;" horiz-adv-x="1000" 
d="M615 636q2 -39 2.5 -127t1.5 -114q-50 -2 -239 -2v241q67 4 235 2zM334 353q2 -34 1.5 -118.5t0.5 -121.5q-94 -5 -238 -3q-3 101 1 242q68 3 235 1zM901 353q0 -181 -1 -242q-118 -3 -236 0q-3 126 0 243q42 1 131 0t106 -1zM616 68q3 -184 1 -241q-157 -2 -236 0
q-1 33 -1 77t0.5 94.5t0.5 71.5q168 0 235 -2z" />
    <glyph glyph-name="bullet.002" unicode="&#xe00e;" horiz-adv-x="1000" 
d="M515 734q76 -150 134 -300q0 -1 -4 -7q-114 -4 -294 -2q40 109 137 309h27zM998 246q0 -20 -1 -30q-182 -97 -299 -144q-1 25 -1 312q196 -78 301 -138zM0 213v25q135 71 305 143q2 -83 2 -314q-216 96 -307 146zM351 26l4 10q265 0 296 -1q-60 -163 -129 -305h-32
q-54 100 -139 296z" />
    <glyph glyph-name="bullet.003" unicode="&#xe00f;" horiz-adv-x="1000" 
d="M334 635q1 -35 1.5 -118t1.5 -120q-80 -3 -241 -3q0 39 -0.5 123.5t-0.5 116.5q63 3 239 1zM902 635q0 -96 -2 -240q-133 -2 -239 0q-1 85 1 242q102 2 240 -2zM618 350q2 -136 2 -240q-124 -3 -241 0q-2 52 1 241q169 0 238 -1zM334 67q3 -97 1 -241q-70 -3 -238 0
q-5 122 0 239q94 4 237 2zM903 65q0 -116 -4 -240q-85 -1 -238 1q0 166 2 240q104 3 240 -1z" />
    <glyph glyph-name="bullet.004" unicode="&#xe010;" horiz-adv-x="1000" 
d="M15 723q68 1 461 1q9 -219 1 -486q-88 -2 -462 -2v151v193.5v142.5zM81 650q-3 -262 1 -339q80 -4 333 3q1 73 -5 338q-34 1 -329 -2zM163 566q33 2 166 2q2 -48 2 -172q-52 -2 -168 0q-2 89 0 170zM664 567q26 1 168 1q2 -46 2 -173q-107 -4 -169 0q-1 27 -1 172z
M521 226q167 1 462 -1q2 -265 0 -486q-201 -3 -463 1q-4 254 1 486zM587 154q-6 -188 -2 -340q303 -3 333 -3q2 231 0 338q-233 6 -331 5zM669 64q46 2 167 2q2 -56 2 -172h-169v50v64.5v55.5zM163 61h168q1 -17 1 -173q-112 -2 -169 -1q-2 112 0 174z" />
    <glyph glyph-name="bullet.005" unicode="&#xe011;" horiz-adv-x="916" 
d="M85 261l7 4q479 0 668 4q2 303 -1 421q47 2 74 0q-1 -193 -1 -486l-8 -5h-206.5t-250.5 -0.5t-209 -2.5q-3 -86 0 -420q-42 -2 -67 -1l-7 5q1 105 1 265.5v215.5zM200 408v279q181 2 281 1q1 -46 1 -137.5v-140.5q-61 -2 -282 -2zM270 474q98 -2 144 1q0 82 -3 148
q-34 -1 -146 -4q3 -112 5 -145zM435 -223q-2 176 -2 280q186 0 283 -1v-278q-123 -3 -281 -1zM505 -159l3 -1q119 3 141 4q0 80 -3 146q-103 0 -145 -2q0 -100 4 -147z" />
    <glyph glyph-name="bullet.006" unicode="&#xe012;" horiz-adv-x="1000" 
d="M759 429v-85h233v-67q-71 -2 -233 -2v-84q160 0 233 -2v-65q-68 -1 -233 -1v-82q30 0 113 -1t120 -1v-66q-72 -1 -236 -1v-234q-12 0 -35.5 0.5t-31.5 0.5q0 29 -1.5 112t-1.5 113q-25 -1 -81 -1v-67.5v-87.5v-69q-10 -1 -66 -1v226h-81v-69.5v-89.5v-67q-13 -1 -36.5 0
t-30.5 1q0 27 -0.5 110t-0.5 114h-78q-1 -41 -2 -126t-1 -98h-20.5h-25h-20.5q-1 32 -1 117v115q-161 0 -234 1q-1 21 -1 66q32 0 115 1t119 2q-1 30 -1 84q-33 1 -117 0t-115 -1v22v25v18q195 3 232 3v85q-31 1 -114 1h-118q-1 11 -1 67h73.5h92h67.5v84q-30 0 -112.5 0.5
t-119.5 0.5q-1 12 -1 67q35 0 119.5 0.5t115.5 0.5v228q11 0 34 0.5t32 0.5q1 -30 1.5 -110.5t0.5 -112.5q25 1 82 1v70v87.5v62.5q21 1 65 1q3 -162 3 -221h79q1 35 1.5 118.5t0.5 102.5h65q1 -25 1.5 -108.5t0.5 -112.5q13 0 40 -0.5t40 -0.5q0 110 2 222h21h25.5h19.5
v-227q32 -1 117 -1.5t119 -0.5q2 -42 2 -65q-40 -1 -130 -2t-105 -1zM686 433q-134 3 -376 3q0 -30 -0.5 -101t-0.5 -144.5t1 -153.5q202 -5 381 -2q0 99 -2.5 240.5t-2.5 157.5z" />
    <glyph glyph-name="bullet.007" unicode="&#xe013;" horiz-adv-x="1000" 
d="M500 -216l-9 14q268 573 439 904l18 2q2 -117 2 -920q-67 0 -224.5 -0.5t-225.5 0.5zM418 -203l-9 -11q-31 -1 -359 -1v889l10 6q246 5 357 0q0 -526 1 -883zM594 -144l5 -8q195 3 277 7q2 65 6.5 290.5t7.5 324.5l-8 1q-161 -325 -288 -615z" />
    <glyph glyph-name="bullet.008" unicode="&#xe014;" horiz-adv-x="1000" 
d="M409 680l9 -9v-886q-80 -2 -358 0l-9 6q-1 215 -1 890q328 0 359 -1zM948 -238l-18 1q-175 340 -438 905q4 10 6 14q68 1 226 0.5t225 -0.5q2 -647 -1 -920zM605 616l-5 -6q115 -275 282 -613l7 1q-3 207 -14 615q-54 3 -270 3z" />
    <glyph glyph-name="bullet.009" unicode="&#xe015;" horiz-adv-x="1000" 
d="M508 -205l-6 -14q-68 -1 -226.5 -0.5t-225.5 0.5q-2 648 1 921l18 -1q174 -340 439 -906zM591 -217l-10 8q1 356 1 890q44 0 179 0.5t180 -0.5l8 -6q1 -217 1 -892q-35 0 -113 -0.5t-140.5 -0.5t-105.5 1zM397 -156l4 8q-92 219 -280 613h-9q2 -101 5 -327t4 -288
q84 -4 276 -6z" />
    <glyph glyph-name="bullet.010" unicode="&#xe016;" horiz-adv-x="1000" 
d="M502 681l7 -14q-286 -608 -439 -904l-18 -1q-1 78 -1 919h451zM582 671l8 9h360q0 -204 -0.5 -500t-0.5 -391l-9 -6q-291 0 -358 2v886zM401 606l-4 8q-196 3 -272 0q-5 -125 -10 -617l8 -1q198 423 278 610z" />
    <glyph glyph-name="bullet.011" unicode="&#xe017;" horiz-adv-x="860" 
d="M235 -315l-6 4q34 95 69 181q-140 0 -201 1v250.5v265.5v185q313 3 665 2q3 -488 2 -702q-66 -1 -199 -1q10 -30 33 -90.5t33 -89.5l-6 -7q-331 0 -390 1zM431 220h9q17 -45 54 -145.5t49 -131.5q5 0 61 1t84 2q4 276 4 558q-299 -2 -520 -6q-4 -540 -4 -554
q94 -2 158 -2q99 262 105 278z" />
    <glyph glyph-name="bullet.012" unicode="&#xe018;" horiz-adv-x="860" 
d="M659 755l3 -7q-7 -29 -24.5 -92t-25.5 -92h49h54.5h45.5q0 -510 -1 -687q-382 -2 -659 -1q0 600 1 687q50 1 143 1q-55 167 -61 185l6 6q40 0 141 0.5t185 0.5t143 -1zM425 183l10 -1q105 374 138 503q-114 5 -289 3l-4 -6q124 -433 145 -499z" />
    <glyph glyph-name="bullet.013" unicode="&#xe019;" horiz-adv-x="1000" 
d="M89 23l-7 5q-2 220 1 389l4 5q23 -9 80 -32.5t87 -35.5v220q88 0 231.5 0.5t246.5 0.5t185 -1q3 -334 2 -703q-177 -2 -663 -2q-1 38 -1 219q-71 -29 -166 -65zM583 222l1 -9q-114 -48 -256 -102q0 -51 2 -165q191 -4 518 -4q-2 386 -5 557q-3 0 -199.5 2t-315.5 2
q-2 -116 -1 -178q87 -33 256 -103z" />
    <glyph glyph-name="bullet.014" unicode="&#xe01a;" horiz-adv-x="1000" 
d="M911 -7l-7 -3q-61 20 -163 48q1 -2 0.5 -79t-0.5 -79q-492 0 -651 2q-4 343 -1 680q54 0 178.5 0.5t242.5 0.5t230 -1q1 -56 1 -152q141 50 164 58l6 -5q2 -311 0 -470zM361 227l-1 -10q340 -98 484 -138q2 196 0 288l-5 6q-29 -9 -209.5 -63t-268.5 -83z" />
    <glyph glyph-name="bullet.015" unicode="&#xe01b;" horiz-adv-x="1000" 
d="M0 56v676h1000v-670l-7 1q-35 44 -148 167h-7q-55 -56 -150 -164h-5q-70 98 -161 214h-6q-1 -1 -172 -207l-8 -1q-97 116 -154 176h-10q-54 -61 -165 -192h-7zM0 -268v155q66 0 291.5 -1t406.5 -0.5t302 2.5v-156h-1000z" />
    <glyph glyph-name="bullet.016" unicode="&#xe01c;" horiz-adv-x="394" 
d="M207 395h-21q-55 92 -168 298l5 8q291 0 344 -1q-64 -134 -160 -305zM195 334q39 0 65 -29t26 -70q0 -45 -25 -75t-66 -30q-42 0 -70.5 28t-28.5 70q0 46 29 76t70 30zM184 71h19q54 -87 169 -298l-5 -8q-309 0 -344 1q90 182 161 305z" />
    <glyph glyph-name="bullet.017" unicode="&#xe01d;" horiz-adv-x="1000" 
d="M660 218v22q61 37 290 169l8 -5q0 -313 -1 -348q-189 99 -297 162zM339 241l1 -19q-156 -95 -291 -171l-8 5q0 313 1 348q143 -73 297 -163zM590 229q0 -41 -24 -68t-61 -27q-45 0 -70 27t-25 67q0 41 25.5 71t63.5 30q39 0 65 -28t26 -72z" />
    <glyph glyph-name="bullet.018" unicode="&#xe01e;" horiz-adv-x="574" 
d="M0 315v33q160 2 251 1q64 -43 114.5 -88.5t112.5 -111.5q67 0 96 1v-33q-152 -2 -251 -1q-41 23 -122.5 94t-111.5 106q-12 0 -43 -0.5t-46 -0.5z" />
    <glyph glyph-name="bullet.019" unicode="&#xe01f;" horiz-adv-x="574" 
d="M574 348v-32q-14 0 -45.5 0.5t-43.5 0.5q-30 -35 -111.5 -106.5t-122.5 -94.5q-98 -1 -251 1v32h96q62 66 112.5 111.5t114.5 88.5q91 1 251 -1z" />
    <glyph glyph-name="bullet.020" unicode="&#xe020;" horiz-adv-x="982" 
d="M48 93l4 3q119 -74 146 -93l-1 -3q-24 -1 -78 -0.5t-76 0.5q-6 48 5 93zM144 385h3q28 -87 39 -125q-15 -3 -107 -18q4 27 23.5 72.5t41.5 70.5zM410 538l3 -3q-27 -83 -40 -117q-65 31 -116 59q20 21 67.5 40.5t85.5 20.5zM718 473l-2 -4q-52 -27 -104 -52q-7 19 -23 59
l-24 60q42 -3 85.5 -22t67.5 -41zM833 378l3 3q28 -34 46 -80t23 -78q-36 10 -108 33q13 47 36 122zM725 50h-5q-11 103 -73 178q-57 62 -152 62q-57 0 -97 -17t-77 -56q-61 -81 -69 -177h-5q-161 116 -184 133l1 3q113 22 203 38l1 2q-47 135 -69 207l2 5q76 -35 202 -97h2
q26 75 78 209h6q50 -108 91 -210h1q72 38 196 97l3 -4q-30 -102 -63 -209v-1q71 -19 185 -52v-5q-75 -48 -177 -106zM937 4l-3 -4h-163v4q29 16 86 47.5t70 38.5q7 -20 10 -86zM322 0l-3 5q0 46 14.5 89t35.5 66q50 56 122 56q81 0 122 -65q35 -59 40 -150q-25 -1 -179 -1
h-152z" />
    <glyph glyph-name="bullet.021" unicode="&#xe021;" horiz-adv-x="886" 
d="M527 76l1 -2q65 1 174 8.5t123 13.5q3 -25 -1.5 -56t-12.5 -39q-73 -1 -301 -1q-352 2 -439 3q-15 23 -15 93q60 -15 300 -22l1 2q-187 178 -267 286q2 22 16.5 46t30.5 32q37 -57 131.5 -165t132.5 -138h2q0 83 -11 464q13 12 41 19t50 3q-2 -56 -5 -243t-1 -251l2 -1
q52 55 130.5 154t114.5 157q11 1 30 -24t23 -51q-32 -51 -109.5 -138.5t-140.5 -149.5z" />
    <glyph glyph-name="bullet.022" unicode="&#xe022;" horiz-adv-x="1000" 
d="M499 485l5 5q241 4 491 2l3 -4q-87 -204 -231 -514h-7q-173 321 -261 511zM255 491h7q122 -272 227 -514l-3 -4q-294 -3 -488 1q-4 2 -5 4q127 261 262 513zM591 435l-3 -3q131 -254 168 -325h5q95 195 152 325l-2 3q-90 5 -320 0zM251 357l-4 -1q-74 -141 -164 -324
l3 -3q104 -2 315 2l2 3q-58 132 -152 323z" />
    <glyph glyph-name="bullet.023" unicode="&#xe023;" horiz-adv-x="1000" 
d="M761 85l-8 -1q-106 168 -244 412l5 9q42 1 475 1l4 -10q-144 -266 -232 -411zM489 -33l-5 -9q-124 -2 -471 1l-6 10q124 224 241 408h8q108 -181 233 -410z" />
    <glyph glyph-name="bullet.024" unicode="&#xe024;" horiz-adv-x="672" 
d="M501 -48l-12 1q-149 206 -331 439q-106 -137 -158 -205v99q125 171 155 214h12q236 -316 329 -436h9q19 25 167 222v-99q-15 -21 -74.5 -103t-96.5 -132zM508 271h-11q-93 138 -142 213l2 11q190 2 292 1l4 -11q-57 -87 -145 -214zM306 -26l-3 -11q-41 -1 -292 -1l-3 11
q64 101 140 214l11 1q60 -86 147 -214z" />
    <glyph glyph-name="bullet.025" unicode="&#xe025;" horiz-adv-x="1000" 
d="M743 -24l-6 -5q-83 0 -246 0.5t-245 1.5l-6 3q-1 244 1 741l6 2q503 -233 694 -327l1 -8q-120 -251 -199 -408zM705 30l5 2q59 127 147 331l-2 7q-266 124 -549 247l-4 -4q-1 -99 2 -577q391 -6 401 -6zM674 121l-3 -3q-158 22 -321 50l-2 5q111 154 214 280l3 1
q52 -150 109 -333zM614 170l1 2q-38 108 -71 187h-3q-88 -114 -121 -158l1 -3q77 -13 193 -28z" />
    <glyph glyph-name="bullet.026" unicode="&#xe026;" horiz-adv-x="1000" 
d="M16 -27l-2 6q268 574 327 693l8 1q199 -93 407 -198l5 -6q0 -83 -0.5 -246t-1.5 -245l-3 -6q-243 -1 -740 1zM116 38l4 -4q99 -1 577 2q0 65 2 198t3 202l-2 5q-149 71 -330 147l-7 -2q-86 -184 -247 -548zM272 301l-1 3q212 77 327 116l3 -3q-19 -180 -43 -336l-4 -2
q-105 75 -282 222zM366 283v-3q25 -20 77.5 -62.5t81.5 -65.5l3 1q13 96 21 208l-2 1q-62 -26 -181 -79z" />
    <glyph glyph-name="bullet.027" unicode="&#xe027;" horiz-adv-x="1000" 
d="M244 -11l-5 6q0 83 0.5 246t1.5 245l3 6q244 1 740 -1l2 -6q-273 -585 -327 -694l-8 -1q-213 101 -407 199zM298 27l2 -5q141 -65 330 -147l7 2q95 204 247 549l-4 4q-99 1 -577 -2q0 -65 -2 -198t-3 -203zM401 47l-3 3q23 188 44 333l5 2q131 -93 279 -222l1 -3
q-126 -48 -326 -113zM451 106l2 -1q116 45 179 75v3q-93 79 -157 129l-3 -1q-8 -59 -21 -205z" />
    <glyph glyph-name="bullet.028" unicode="&#xe028;" horiz-adv-x="1000" 
d="M257 488l6 5q83 0 246 -0.5t245 -1.5l6 -4q1 -243 -1 -741l-6 -2q-487 226 -694 327l-1 8q105 223 199 409zM295 433l-5 -2q-62 -133 -147 -331l2 -7q204 -95 549 -247l4 4q1 100 -2 578q-65 0 -198 2t-203 3zM324 342l3 3q91 -11 324 -49l2 -6q-43 -61 -219 -282l-3 -1
q-76 228 -107 335zM383 293l-1 -2q46 -139 66 -192h3q82 102 130 163l-1 3q-77 13 -197 28z" />
    <glyph glyph-name="bullet.029" unicode="&#xe029;" horiz-adv-x="1000" 
d="M775 567l-1 -13q-46 -55 -125 -151.5t-88 -107.5q117 -119 252 -241h9q38 48 107.5 139t70.5 93v-99q-166 -225 -171 -232l-15 1q-110 107 -349 331q148 175 218 264q-45 35 -132 101t-105 80h99q101 -73 230 -165zM479 526v-13q-61 -70 -194 -233l1 -12
q172 -165 325 -304q-1 0 -49.5 -0.5t-49.5 0.5q-45 42 -138.5 126.5t-140.5 128.5q-2 53 0 105q122 147 149 180l-1 9q-60 51 -148 122q-2 42 0 83q27 -21 77.5 -60.5t91.5 -71.5t77 -60zM711 310q69 86 98 120q31 -27 99 -91q-72 -92 -99 -125q-68 66 -98 96z" />
    <glyph glyph-name="bullet.030" unicode="&#xe02a;" horiz-adv-x="1000" 
d="M446 732h100q-131 -102 -228 -181q57 -73 217 -264q-35 -33 -157.5 -149t-191.5 -182l-15 -1q-126 172 -171 232v99q24 -30 84.5 -109.5t94.5 -122.5h9q138 125 251 241q-164 202 -213 259v13zM714 268l1 12q-119 148 -194 233l1 13q78 59 245 193q2 -41 0 -83
q-63 -52 -148 -123v-9q53 -67 148 -180q2 -52 0 -105q-47 -44 -140.5 -128.5t-138.5 -126.5q-48 -1 -98 0q162 147 324 304zM290 310q-15 -15 -48 -47t-50 -49q-27 33 -99 125q83 78 98 91q31 -36 99 -120z" />
    <glyph glyph-name="bullet.031" unicode="&#xe02b;" horiz-adv-x="1000" 
d="M545 -268h-100q176 133 237 181q-100 128 -217 264q21 20 150 142t199 190l15 1q27 -35 83.5 -109t87.5 -114v-100q-121 155 -179 225h-9q-133 -121 -251 -243q24 -29 96 -117t117 -141v-13q-188 -135 -229 -166zM286 196l-1 -12q128 -158 194 -232l-1 -13
q-56 -42 -245 -194q-1 41 0 83l69 57.5t79 66.5v9q-67 84 -148 179q-2 54 0 106q31 28 88 80t103.5 94.5t87.5 80.5q50 1 98 0q-131 -117 -324 -305zM710 154q42 44 98 96q56 -67 99 -124q-3 -3 -40.5 -38.5t-57.5 -53.5q-17 20 -49.5 60t-49.5 60z" />
    <glyph glyph-name="bullet.032" unicode="&#xe02c;" horiz-adv-x="1000" 
d="M545 -268h-99q-47 37 -127.5 96.5t-93.5 69.5l1 13q45 53 117 141t96 117q-122 126 -252 243h-9q-44 -54 -178 -225v100q18 23 76 99.5t95 123.5l15 -1q70 -68 195.5 -186.5t153.5 -145.5q-127 -150 -218 -264q58 -46 228 -181zM715 184l-1 12q-175 172 -325 305
q1 0 49.5 0.5t49.5 -0.5q41 -38 87.5 -80.5t103.5 -94.5t88 -80q2 -52 0 -106q-100 -118 -149 -179l1 -9q28 -24 81 -68t67 -56q2 -42 0 -83q-185 148 -246 194v13q43 49 194 232zM289 154q-64 -80 -98 -120q-29 26 -99 92q33 42 99 124q43 -39 98 -96z" />
    <glyph glyph-name="bullet.033" unicode="&#xe02d;" horiz-adv-x="1000" 
d="M889 353l1 -15q-60 -117 -212 -379q-49 0 -138.5 -1t-165 -1t-147.5 2q-4 512 1 744l10 4q357 -179 651 -354zM552 467l-7 2q-145 -158 -254 -298l2 -6q159 -48 352 -92l5 5q-32 146 -98 389z" />
    <glyph glyph-name="bullet.034" unicode="&#xe02e;" horiz-adv-x="1000" 
d="M380 621l14 1q147 -75 380 -212q0 -49 1 -138.5t1 -164.5t-2 -147q-512 -4 -745 1l-4 10q204 396 355 650zM258 299l-1 -7q123 -125 282 -267l7 2q48 170 93 370l-5 5q-193 -48 -376 -103z" />
    <glyph glyph-name="bullet.035" unicode="&#xe02f;" horiz-adv-x="1000" 
d="M621 -157l-15 -1q-133 69 -379 212q0 49 -1 138.5t-1 164.5t2 147q480 6 744 0l4 -10q-193 -381 -354 -651zM735 181l2 6q-139 129 -298 254l-7 -2q-32 -152 -62 -368l5 -5q154 44 360 115z" />
    <glyph glyph-name="bullet.036" unicode="&#xe030;" horiz-adv-x="1000" 
d="M111 112l-1 15q79 152 212 379q49 0 138.5 1t164.5 1t147 -2q6 -480 0 -745l-11 -4q-401 207 -650 355zM433 -10l7 -1q112 109 268 280l-2 7q-140 47 -360 107l-5 -6q33 -154 92 -387z" />
    <glyph glyph-name="sterling.fitted" unicode="&#xe031;" horiz-adv-x="524" 
d="M348 654q52 0 90 -15q2 -22 13 -142l-54 -6l-16 94q-4 11 -10 13q-20 7 -50 7q-48 0 -79 -32q-33 -33 -33 -104q0 -6 13 -139q48 0 180 2q0 -27 -3 -51h-172q2 -24 2 -34q0 -108 -62 -189q-7 -10 8 -10q196 0 221 7q12 1 19 21l33 98q16 -3 51 -12q-12 -59 -38 -163
q-13 0 -129.5 0.5t-194.5 0.5q-20 0 -59.5 -0.5t-60.5 -0.5q0 33 1 48l68 3q10 0 16 6q52 53 52 166q0 32 -4 59h-99q0 17 2 47q29 1 87 1q6 0 4 6q-13 102 -13 123q0 92 61 145q60 51 156 51z" />
    <glyph glyph-name="sterling.oldstyle" unicode="&#xe032;" horiz-adv-x="501" 
d="M393 66l27 75q21 -2 49 -10q-12 -54 -33 -132q-55 1 -286 1h-122q0 16 2 46l65 1q10 0 13 5q40 41 40 121q0 19 -2 39h-92q0 16 2 46q14 0 40 0.5t39 0.5q5 0 4 4q-10 72 -10 87q0 70 54 114q52 42 145 42q55 0 91 -12q4 -38 10 -118q-9 -1 -26 -2.5t-25 -2.5l-13 71
q-1 8 -9 10q-18 8 -48 8q-50 0 -72 -22q-32 -32 -32 -81q0 -27 11 -97q111 0 179 1q0 -33 -2 -49h-172q0 -3 0.5 -10.5t0.5 -11.5q0 -73 -47 -137q-7 -8 5 -8q171 0 198 6q11 2 16 15z" />
    <glyph glyph-name="yen.fitted" unicode="&#xe033;" horiz-adv-x="524" 
d="M232 54v90q-22 0 -76 -0.5t-78 -0.5q-1 16 1 43h153v61h-155q0 29 1 42q45 1 139 1q-34 62 -158 293q-2 5 -7 5l-41 2q0 31 1 46q10 0 38 -0.5t44 -0.5q26 0 71.5 0.5t63.5 0.5q0 -31 -1 -46l-87 -3q46 -93 136 -279h5q80 164 131 274q3 5 -4 5l-80 3q0 30 1 45h117
q13 0 39 0.5t36 0.5q0 -31 -1 -45l-42 -4q-107 -201 -159 -296q93 0 136 1q0 -31 -1 -45h-154l-1 -61q26 0 77.5 0.5t75.5 0.5q0 -28 -1 -42q-20 0 -73.5 -0.5t-78.5 -0.5l-1 -95l96 -3q0 -31 -1 -46q-17 0 -61 0.5t-66 0.5q-20 0 -62.5 -0.5t-62.5 -0.5q-1 16 1 46l83 2
q6 1 6 6z" />
    <glyph glyph-name="yen.oldstyle" unicode="&#xe034;" horiz-adv-x="470" 
d="M242 247h4q63 102 116 200q1 3 -4 5l-61 1q0 29 1 42q69 0 103 1h65v-42l-40 -2q-113 -176 -144 -224q82 0 123 1q1 -12 -1 -39h-139l-1 -44h139q0 -24 -1 -36q-21 0 -68.5 -0.5t-69.5 -0.5v-64l87 -2q0 -29 -1 -43q-19 0 -58.5 0.5t-57.5 0.5q-17 0 -55.5 -0.5
t-59.5 -0.5q0 28 1 43l78 2q4 0 4 4v60q-19 0 -67.5 -0.5t-72.5 -0.5q0 27 1 38h139v44h-142q0 26 1 37q41 1 126 1q-50 74 -144 220q-1 2 -5 4l-40 1q0 8 0.5 22.5t0.5 20.5h74h117q0 -6 -0.5 -20.5t-0.5 -22.5l-66 -2q68 -119 119 -204z" />
    <glyph glyph-name="uniF634" unicode="&#xf634;" horiz-adv-x="333" 
d="M166 -42q23 0 41 -22t18 -51q0 -90 -92 -143q-9 11 -23 30q55 36 55 81q0 30 -41 41q-4 26 9.5 45t32.5 19z" />
    <glyph glyph-name="space_uni0326" unicode="&#xf6c3;" horiz-adv-x="333" 
d="M167 -52q21 0 39 -20t18 -45q0 -79 -90 -128q-14 14 -22 26q53 33 53 73q0 25 -39 37q-4 23 9 40t32 17z" />
    <glyph glyph-name="acute.cap" unicode="&#xf6c9;" horiz-adv-x="333" 
d="M359 849q16 -19 37 -53q-107 -61 -168 -95q-14 17 -23 34q123 91 154 114z" />
    <glyph glyph-name="caron.cap" unicode="&#xf6ca;" horiz-adv-x="333" 
d="M273 771q9 6 50 33t60 40q13 -12 27 -31q-12 -10 -36.5 -30.5t-45.5 -38t-38 -31.5q-24 0 -35 1q-69 58 -118 97q23 27 26 31q13 -8 51.5 -33t58.5 -38z" />
    <glyph glyph-name="dieresis.cap" unicode="&#xf6cb;" horiz-adv-x="333" 
d="M193 806q20 0 30.5 -14t10.5 -31q0 -16 -11.5 -29t-30.5 -13t-31.5 12t-12.5 31q0 17 11.5 30.5t33.5 13.5zM362 806q20 0 31 -13.5t11 -30.5q0 -18 -12 -30.5t-29 -12.5q-21 0 -33.5 13t-12.5 29q0 17 11 31t34 14z" />
    <glyph glyph-name="grave.cap" unicode="&#xf6ce;" horiz-adv-x="333" 
d="M197 850q108 -81 154 -115q-8 -14 -23 -34q-10 6 -74 42t-95 53q21 34 38 54z" />
    <glyph glyph-name="hungarumlaut.cap" unicode="&#xf6cf;" horiz-adv-x="333" 
d="M264 862q17 -16 36 -44q-46 -33 -144 -101q-4 5 -12.5 15.5t-12.5 15.5q14 12 41.5 35.5t50.5 43t41 35.5zM386 858q11 -10 36 -42q-78 -55 -143 -104q-15 17 -25 31q109 95 132 115z" />
    <glyph glyph-name="macron.cap" unicode="&#xf6d0;" horiz-adv-x="333" 
d="M390 785v-49q-33 0 -110.5 0.5t-114.5 0.5q-2 22 0 46q38 1 112.5 1.5t112.5 0.5z" />
    <glyph glyph-name="R_p" unicode="&#xf6dd;" horiz-adv-x="1050" 
d="M123 596l-69 2q0 31 1 46q110 2 190 2q76 0 131 -15q51 -14 86.5 -56t35.5 -94q0 -63 -37.5 -109t-98.5 -69v-5q30 -13 51 -44t59 -105q9 -16 13 -25q24 -46 35 -59.5t20 -13.5l86 -2v311h-63q-1 15 1 40q8 2 40.5 10t58 14t29.5 6q2 0 2 -2q4 -30 5 -52l5 -1
q67 36 94 45.5t57 9.5q70 0 113.5 -59.5t42.5 -131.5q0 -69 -24 -123q-29 -63 -79 -97q-43 -29 -106 -29q-51 0 -97 23l-3 -2q0 -29 -0.5 -101t-0.5 -102l93 -2q0 -29 -1 -43q-86 0 -130 -1q-70 0 -100 -1q0 29 1 43l58 4q4 0 4 5v189q-32 -1 -92 -1q-36 -2 -65 -2
q-19 26 -66.5 118.5t-60.5 112.5q-18 26 -36 36t-53 10q-43 0 -53 -2v-224l84 -3q0 -7 -0.5 -23t-0.5 -24q-16 0 -57.5 0.5t-62.5 0.5q-20 0 -57 -0.5t-52 -0.5q0 31 1 47l63 3q5 0 5 3v543zM203 595l-2 -271q6 -2 49 -2q85 0 125.5 42.5t40.5 96.5q0 68 -43 103.5
t-118 35.5q-42 0 -52 -5zM825 369q-57 0 -121 -46q-1 -76 -1 -234q0 -17 30.5 -34t65.5 -17q48 0 82 34q48 50 48 142q0 65 -22 105q-28 50 -82 50z" />
    <glyph glyph-name="cent.inferior" unicode="&#xf6df;" 
d="M168 -126v60q-52 2 -87 29t-35 74q0 50 33 85.5t91 42.5l1 57q24 2 39 2l-1 -56h6q38 0 73 -16q0 -11 -7.5 -25t-15.5 -19q-32 21 -57 21l-2 -156q31 1 75 20q7 -16 10 -32q-42 -21 -85 -26l-1 -59q-6 0 -18.5 -1t-18.5 -1zM168 -26l2 154q-29 -3 -48.5 -27t-19.5 -54
q0 -42 29 -61q15 -10 37 -12z" />
    <glyph glyph-name="cent.superior" unicode="&#xf6e0;" 
d="M168 414v60q-52 2 -87 29t-35 74q0 50 33 85.5t91 42.5l1 57q24 2 39 2l-1 -56h6q38 0 73 -16q0 -11 -7.5 -25t-15.5 -19q-32 21 -57 21l-2 -156q31 1 75 20q7 -16 10 -32q-42 -21 -85 -26l-1 -59q-6 0 -18.5 -1t-18.5 -1zM168 514l2 154q-29 -3 -48.5 -27.5t-19.5 -53.5
q0 -42 29 -61q15 -10 37 -12z" />
    <glyph glyph-name="comma.inferior" unicode="&#xf6e1;" horiz-adv-x="229" 
d="M166 -97q0 -78 -90 -129q-10 11 -23 28q54 33 54 73q0 27 -41 38q-3 24 10 41.5t32 17.5q22 0 40 -21t18 -48z" />
    <glyph glyph-name="comma.superior" unicode="&#xf6e2;" horiz-adv-x="229" 
d="M166 444q0 -78 -90 -130q-10 11 -23 28q54 33 54 74q0 26 -41 37q-3 24 10 41.5t32 17.5q22 0 40 -20.5t18 -47.5z" />
    <glyph glyph-name="dollar.inferior" unicode="&#xf6e3;" 
d="M191 164l-2 -89q98 -22 99 -81q0 -40 -30 -64q-29 -23 -79 -26l-1 -54q-12 -1 -36 -1l1 55q-68 0 -109 24q2 9 10 23t15 19q43 -28 84 -29l2 96q-47 12 -72 30.5t-25 50.5q0 37 35 60q29 19 71 22l1 55q7 1 22 2t16 1l-1 -57q52 -3 86 -19q0 -9 -7.5 -23.5t-14.5 -19.5
q-35 24 -65 25zM153 83l1 80q-27 0 -39 -12q-13 -11 -13 -27t11.5 -25t39.5 -16zM181 29l-2 -88q23 0 39 11q17 12 17 33q0 16 -12.5 26t-41.5 18z" />
    <glyph glyph-name="dollar.superior" unicode="&#xf6e4;" 
d="M191 704l-2 -90q98 -22 99 -80q0 -41 -30 -65q-29 -23 -79 -26l-1 -54q-12 -1 -36 -1l1 55q-68 0 -109 24q2 9 10 23t15 19q43 -28 84 -29l2 97q-97 22 -97 81q0 37 35 60q29 19 71 22l1 55q7 1 22 2t16 1l-1 -57q52 -3 86 -19q0 -9 -7.5 -23.5t-14.5 -19.5
q-35 24 -65 25zM153 623l1 80q-27 0 -39 -12q-13 -11 -13 -28q0 -15 11.5 -24t39.5 -16zM181 568l-2 -88q23 0 39 11q17 14 17 33q0 16 -12.5 26t-41.5 18z" />
    <glyph glyph-name="hyphen.inferior" unicode="&#xf6e5;" horiz-adv-x="256" 
d="M34 72q31 1 93 1q63 0 95 1q0 -19 -2 -47h-95h-92q0 30 1 45z" />
    <glyph glyph-name="hyphen.superior" unicode="&#xf6e6;" horiz-adv-x="256" 
d="M34 612q31 1 93 1q63 0 95 1q0 -19 -2 -47h-95h-92q0 30 1 45z" />
    <glyph glyph-name="period.inferior" unicode="&#xf6e7;" horiz-adv-x="229" 
d="M115 -29q21 0 31.5 -14t10.5 -30q0 -18 -12 -31t-31 -13t-31.5 12t-12.5 31q0 17 12 31t33 14z" />
    <glyph glyph-name="period.superior" unicode="&#xf6e8;" horiz-adv-x="229" 
d="M115 511q21 0 31.5 -14t10.5 -30q0 -18 -12 -31t-31 -13t-31.5 12t-12.5 31q0 17 12 31t33 14z" />
    <glyph glyph-name="b.superior" unicode="&#xf6ea;" horiz-adv-x="389" 
d="M118 610l2 -1q48 24 68 30.5t43 6.5q34 0 62.5 -24.5t37.5 -55.5q21 -52 13 -102q-9 -74 -58 -114q-38 -30 -99 -30q-47 0 -81 23l-16 -26q-11 1 -39 7q5 45 5 85v380l-57 2q0 25 1 36q20 2 66.5 10t50.5 8q2 0 2 -2q0 -32 -0.5 -112t-0.5 -121zM209 597q-45 0 -91 -32
q-1 -54 -1 -169q0 -14 22 -25t49 -11q37 0 63 25q34 34 34 98q0 57 -23 87q-21 27 -53 27z" />
    <glyph glyph-name="d.superior" unicode="&#xf6eb;" horiz-adv-x="408" 
d="M276 353h-4q-65 -33 -100 -33q-57 0 -93 36q-43 41 -43 113q0 74 50 130q42 47 112 47q35 0 70 -13l2 1q0 27 -0.5 78t-0.5 77l-62 1v12v13v11q17 2 47 7t52 8.5t26 3.5q2 0 2 -3q0 -64 -1 -226t-1 -234q0 -15 8 -15h52q1 -11 1 -35q-51 -12 -95 -12q-12 9 -22 33z
M198 603q-40 0 -64 -28q-29 -35 -29 -100q0 -56 24 -84q21 -27 58 -27q39 0 78 26q4 3 4 10v186q-30 17 -71 17z" />
    <glyph glyph-name="e.superior" unicode="&#xf6ec;" horiz-adv-x="350" 
d="M37 470q0 94 63 143q39 33 97 33q57 0 88 -38q29 -39 29 -105q0 -4 -9.5 -13t-13.5 -10q-96 -2 -187 -2q-2 -57 24 -84q24 -29 74 -29q45 0 97 24q6 -15 10 -38q-61 -31 -121 -31q-72 0 -111.5 41t-39.5 109zM188 607q-33 0 -50 -20q-29 -29 -32 -70q99 0 135 2q9 0 9 8
q0 35 -18 60q-17 20 -44 20z" />
    <glyph glyph-name="i.superior" unicode="&#xf6ed;" horiz-adv-x="209" 
d="M107 798q19 0 29 -12.5t10 -28.5q0 -19 -12 -31t-30 -12t-30 12.5t-12 29.5t12 29.5t33 12.5zM79 591l-60 2v35q15 2 44.5 7t51 8.5t25.5 3.5q1 0 1 -3q0 -41 -0.5 -140t-0.5 -138l54 -2q0 -24 -1 -37h-87h-82v37l52 2q3 0 3 3v222z" />
    <glyph glyph-name="l.superior" unicode="&#xf6ee;" horiz-adv-x="201" 
d="M67 791l-62 1q0 6 0.5 18.5t0.5 17.5q16 1 45 5.5t51.5 8t25.5 3.5t3 -3q-1 -73 -2 -243.5t-1 -232.5l60 -2v-36h-91q-14 0 -43 -0.5t-43 -0.5q0 25 1 37l52 2q3 0 3 4v421z" />
    <glyph glyph-name="m.superior" unicode="&#xf6ef;" horiz-adv-x="614" 
d="M79 591l-59 2q0 24 1 34q14 2 41.5 7t48 8.5t23.5 3.5q1 0 1 -2q1 -7 2.5 -22.5t1.5 -17.5l3 -1q47 29 68 36.5t43 7.5q50 0 79 -50h2q48 32 70 40.5t48 8.5q43 0 78 -48q15 -26 15 -57q0 -27 -1 -86.5t-1 -87.5l50 -2q0 -25 -1 -38h-81h-73v38l42 2q2 0 2 3q1 48 1 141
q0 38 -9 59q-13 28 -49 28q-30 0 -82 -36v-195l49 -2v-38h-85h-69q0 26 1 38l42 2q2 0 2 3v146q0 43 -9 59q-13 24 -46 24q-37 0 -86 -37q-2 -122 -2 -195l53 -2q0 -25 -1 -38h-83h-79v38l47 2q2 0 2 3v221z" />
    <glyph glyph-name="r.superior" unicode="&#xf6f1;" horiz-adv-x="289" 
d="M76 592h-57q0 24 1 35q15 2 41.5 6.5t46.5 8.5t23 4q1 0 1 -2q2 -32 2 -97l4 -1q30 59 52.5 80t47.5 21q24 0 44 -8q0 -12 -6.5 -31.5t-13.5 -26.5q-2 0 -9.5 2t-15 3t-13.5 1q-11 0 -26 -12q-23 -20 -48 -68q-12 -24 -12 -68q-1 -24 -1 -73l73 -2q0 -24 -1 -36h-101
q-14 0 -41.5 -0.5t-40.5 -0.5q0 6 0.5 18.5t0.5 17.5l46 3q3 0 3 2v224z" />
    <glyph glyph-name="s.superior" unicode="&#xf6f2;" horiz-adv-x="314" 
d="M75 430l10 -48q1 -6 6 -9q22 -14 50 -14q35 0 52 11q21 10 21 37q0 26 -15.5 35.5t-68.5 24.5q-45 13 -64.5 33t-19.5 52q0 48 47 75q35 19 90 19q56 0 76 -14q6 -54 8 -85q-25 -4 -41 -5l-11 47q-1 6 -5 8q-15 10 -42 10q-32 0 -50 -17q-12 -12 -12 -30q0 -21 13.5 -30
t60.5 -23q48 -13 71.5 -32t23.5 -58q0 -49 -47 -79q-30 -18 -92 -18q-55 0 -92 14q-2 14 -5.5 44t-5.5 45q28 6 42 7z" />
    <glyph glyph-name="t.superior" unicode="&#xf6f3;" horiz-adv-x="283" 
d="M74 398v114q1 22 1 82h-51q0 27 1 41q16 1 47 1q4 0 6 5q0 24 2 68q42 25 57 25q2 0 2 -2q0 -12 -0.5 -46t-0.5 -50q80 0 120 1q0 -17 -2 -43h-119q0 -1 -0.5 -33t-0.5 -47v-105q0 -44 48 -44q31 0 74 12q4 -26 6 -37q-56 -20 -109 -20q-40 0 -61 19q-20 18 -20 59z" />
    <glyph glyph-name="breve.sc" unicode="&#xf6f4;" horiz-adv-x="333" 
d="M164 554q-43 0 -74.5 28t-40.5 68q24 9 39 13q31 -58 79 -58q51 0 76 54q16 -2 41 -10q-8 -34 -41.5 -64.5t-78.5 -30.5z" />
    <glyph glyph-name="caron.sc" unicode="&#xf6f5;" horiz-adv-x="333" 
d="M167 618q15 15 47.5 47t46.5 45q17 -13 29 -27q-17 -19 -54 -63t-51 -60h-37q-40 49 -104 124q15 15 30 26l46 -46t47 -46z" />
    <glyph glyph-name="circumflex.sc" unicode="&#xf6f6;" horiz-adv-x="333" 
d="M167 635q-14 -14 -93 -92q-9 8 -30 26q59 71 105 124q12 1 37 1q14 -16 50.5 -60t53.5 -64q-19 -19 -29 -27q-63 63 -94 92z" />
    <glyph glyph-name="dotaccent.sc" unicode="&#xf6f7;" horiz-adv-x="333" 
d="M170 671q25 0 37.5 -16t12.5 -36q-1 -23 -15.5 -38t-37.5 -15t-38.5 15.5t-15.5 36.5q0 22 15 37.5t42 15.5z" />
    <glyph glyph-name="hungarumlaut.sc" unicode="&#xf6f8;" horiz-adv-x="333" 
d="M204 688q13 -14 32 -46q-49 -28 -151 -86q-5 6 -22 33q105 73 141 99zM356 684q13 -14 32 -46q-74 -42 -150 -87q-8 11 -22 33z" />
    <glyph glyph-name="lslash.sc" unicode="&#xf6f9;" horiz-adv-x="482" 
d="M197 62q0 -11 5 -13.5t30 -2.5q103 0 133 5q9 1 14 15l31 85q13 -1 51 -11q-10 -50 -33 -140h-264h-104q0 28 1 43l57 3q3 0 3 3v138q-56 -29 -69 -36q-12 19 -20 42q18 10 46 24.5t43 22.5v209l-61 3q0 31 1 44h104h111q0 -28 -1 -44l-74 -3q-2 0 -2 -2l-1 -170
q39 19 123 63q10 -16 20 -47q-41 -19 -143 -71z" />
    <glyph glyph-name="oe.sc" unicode="&#xf6fa;" horiz-adv-x="832" 
d="M529 233l-1 -172q0 -10 7 -13t38 -3q100 0 126 6q9 1 15 16l26 68q34 -6 50 -10q-10 -55 -28 -125h-255h-52q0 10 -0.5 31t-0.5 30q-59 -71 -171 -71q-100 0 -164 61q-75 70 -75 191q0 70 31 129.5t82 93.5q64 41 148 41q96 0 149 -61l1 51h45h178h80q3 -40 7 -121
q-34 -4 -51 -7l-14 65q-2 13 -20 14q-40 4 -127 4h-23l-1 -174q23 0 64 0.5t63 1.5q17 0 20 15l3 36h50q0 -13 -0.5 -39t-0.5 -38v-74q-8 0 -25 -0.5t-26 -0.5l-2 37q-1 10 -5.5 13.5t-15.5 3.5q-37 1 -125 1zM303 38q50 0 90 24.5t60 71.5v235q-17 41 -56 65t-91 24
q-66 0 -111 -40q-66 -60 -66 -167q0 -109 51 -161q49 -52 123 -52z" />
    <glyph glyph-name="ogonek.sc" unicode="&#xf6fb;" horiz-adv-x="333" 
d="M262 5h42q-62 -47 -62 -99q0 -22 12.5 -34t31.5 -12q18 0 37 7q6 -15 9 -31q-26 -17 -63 -17q-33 0 -58.5 20t-25.5 53q0 61 77 113z" />
    <glyph glyph-name="ring.sc" unicode="&#xf6fc;" horiz-adv-x="333" 
d="M169 725q43 0 69.5 -24t26.5 -60q0 -37 -28 -61.5t-70 -24.5q-41 0 -69.5 23t-28.5 62q0 34 28.5 59.5t71.5 25.5zM167 689q-22 0 -36.5 -14.5t-14.5 -35.5t15 -34.5t37 -13.5q24 0 37 14t13 35q0 22 -13 35.5t-38 13.5z" />
    <glyph glyph-name="scaron.sc" unicode="&#xf6fd;" horiz-adv-x="446" 
d="M99 145l14 -80q2 -7 7 -10q26 -17 76 -17q69 0 97 29q24 23 24 58q0 45 -42 70q-16 8 -81 35q-62 25 -95 56.5t-33 80.5q0 62 53 101q50 38 146 38q67 0 109 -19q6 -56 9 -121q-7 0 -25 -2t-28 -3l-14 73q-3 7 -5 9q-20 14 -59 14q-57 0 -82 -21q-29 -24 -29 -57
q0 -36 22 -52.5t94 -44.5q68 -27 101.5 -59t33.5 -83q0 -66 -48 -106q-54 -44 -159 -44q-76 0 -129 20q-2 22 -5.5 65.5t-5.5 62.5q33 6 54 7zM235 634q15 15 47.5 47t46.5 45q13 -9 29 -27q-17 -19 -54 -63t-51 -60q-18 -2 -37 0q-62 74 -105 124q20 18 30 26
q14 -14 47 -46t47 -46z" />
    <glyph glyph-name="tilde.sc" unicode="&#xf6fe;" horiz-adv-x="333" 
d="M224 558q-23 0 -62 29q-4 3 -10.5 8t-10.5 7t-9.5 5t-10.5 4.5t-11 1.5q-23 0 -33 -50q-25 0 -37 1q8 99 73 99q11 0 21.5 -3.5t14.5 -6t16.5 -11.5t13.5 -9q4 -2 9.5 -6.5t9 -7t8 -5.5t9.5 -4t10 -1q15 0 21.5 12.5t9.5 38.5h11.5h14h11.5q-6 -102 -69 -102z" />
    <glyph glyph-name="zcaron.sc" unicode="&#xf6ff;" horiz-adv-x="505" 
d="M134 52l1 -2q204 -1 233 7q16 3 22 20l27 79q25 -2 55 -10q-15 -69 -35 -147q-2 0 -94.5 0.5t-145.5 0.5h-149l-7 17.5l-7 17.5q109 129 328 408l-1 3q-178 1 -207 -3q-12 -2 -17 -18l-26 -81l-54 9q11 68 26 143h76h143q144 -1 144 0q4 -10 14 -43q-299 -369 -326 -401z
M258 634q15 15 47.5 47t45.5 45q17 -14 29 -27q-99 -118 -104 -124h-37q-5 6 -44 53t-60 71q12 14 29 27q14 -14 47 -46t47 -46z" />
    <glyph glyph-name="exclam.sc" unicode="&#xf721;" horiz-adv-x="266" 
d="M180 506q2 0 2 -2q-2 -40 -10.5 -168.5t-11.5 -185.5q-15 -3 -52 -6q-1 21 -5 81.5t-5 82.5q-2 26 -7 93t-6 91q42 14 95 14zM136 94q24 0 37.5 -16.5t13.5 -37.5q0 -19 -15 -34t-37 -15q-23 0 -38.5 14t-15.5 35t15.5 37.5t39.5 16.5z" />
    <glyph glyph-name="dollar.oldstyle" unicode="&#xf724;" horiz-adv-x="414" 
d="M239 405l-4 -149q136 -28 136 -122q0 -58 -39 -92q-40 -37 -110 -41l-2 -79q-16 -2 -44 -4l1 82q-95 0 -151 32q5 28 32 55q59 -40 120 -41l3 161q-66 16 -102 43.5t-36 76.5q0 54 49 90q36 27 102 32l1 80q25 5 47 5l-2 -84q72 0 121 -25q0 -12 -10 -30t-21 -25
q-55 33 -91 35zM191 267l3 137q-41 -2 -64 -21q-23 -21 -23 -49q0 -27 20.5 -42.5t63.5 -24.5zM226 197l-4 -152q36 2 58 19q27 19 27 55q0 31 -20 49t-61 29z" />
    <glyph glyph-name="ampersand.sc" unicode="&#xf726;" horiz-adv-x="632" 
d="M278 273v-4q18 -12 41 -31t38 -33t41 -39t35 -33q17 19 32 55.5t16 63.5q0 6 -3 6l-55 2q0 29 1 43h95h79q2 -21 0 -43l-48 -2q-24 -97 -84 -158q14 -16 44 -46q9 -10 29 -10l61 -1q1 -17 -1 -43l-126 -6q-10 11 -29.5 33t-26.5 30q-81 -67 -193 -67q-79 0 -125 32
q-58 39 -58 105q0 47 32.5 86t86.5 61v3q-72 49 -72 109q0 54 46 87q45 33 112 33t104 -28q40 -31 40 -76q0 -84 -112 -129zM160 390q0 -27 18 -47t56 -45q86 33 86 96q0 29 -20 48q-19 20 -58 20q-38 0 -60 -19t-22 -53zM244 39q41 0 79.5 14t60.5 36q-94 99 -182 159
q-83 -38 -83 -111q0 -45 36 -72q34 -26 89 -26z" />
    <glyph glyph-name="zero.oldstyle" unicode="&#xf730;" horiz-adv-x="539" 
d="M260 -10q-85 0 -142 48q-74 60 -74 168q0 51 21.5 99.5t59.5 80.5q60 53 155 53q82 0 136 -42q79 -62 79 -171q0 -122 -84 -189q-59 -47 -151 -47zM265 46q63 0 102 36q51 48 51 137q0 85 -55 132q-36 32 -92 32q-53 0 -92 -34q-57 -54 -57 -140q0 -81 51 -129
q37 -34 92 -34z" />
    <glyph glyph-name="one.oldstyle" unicode="&#xf731;" horiz-adv-x="429" 
d="M54 46l144 3q4 0 4 5v299q-58 -17 -144 -41q-4 13 -12 43q227 89 231 89q3 0 3 -4q0 -59 -1 -198.5t-1 -192.5l129 -3q1 -16 -1 -46q-27 0 -84.5 0.5t-83.5 0.5q-30 0 -91.5 -0.5t-93.5 -0.5q0 30 1 46z" />
    <glyph glyph-name="two.oldstyle" unicode="&#xf732;" horiz-adv-x="440" 
d="M135 59l1 -5q22 0 127 0.5t143 0.5q0 -39 -2 -55h-240h-125q-8 24 -14 51q83 41 138 73q72 44 105 82.5t33 86.5q0 37 -22 61q-28 28 -77 28q-76 0 -133 -71q-16 12 -36 32q73 96 194 96q76 0 119 -43q38 -38 38 -93q0 -63 -39.5 -112t-123.5 -94q-37 -19 -86 -38z" />
    <glyph glyph-name="three.oldstyle" unicode="&#xf733;" horiz-adv-x="428" 
d="M244 163v-6q68 -3 107 -44t39 -96q0 -81 -61 -132q-69 -59 -186 -59q-86 0 -138 28q11 35 17 48q48 -24 117 -24q86 0 132 43q38 35 38 89q0 55 -42 84.5t-115 29.5q-6 0 -26 -0.5t-27 -0.5q-1 16 -1 48q90 1 138 35.5t48 86.5q0 39 -22 64q-24 26 -73 26
q-41 0 -76 -19.5t-58 -48.5q-17 16 -33 33q25 34 72 62.5t119 28.5q73 0 114 -41q36 -38 36 -89q0 -54 -34 -92t-85 -54z" />
    <glyph glyph-name="four.oldstyle" unicode="&#xf734;" horiz-adv-x="496" 
d="M309 -180q1 56 1 183q-15 0 -135 -0.5t-134 -0.5q-12 26 -23 57q99 137 132 180q102 133 160 200q27 0 75 -2q0 -7 -3 -382q43 -1 106 -1q0 -26 -3 -50h-103q0 -28 -0.5 -87.5t-0.5 -92.5q-29 -4 -72 -4zM313 361h-5q-22 -29 -117 -158q-53 -72 -99 -139q-4 -7 3 -7
q88 -2 215 -2z" />
    <glyph glyph-name="five.oldstyle" unicode="&#xf735;" horiz-adv-x="439" 
d="M61 161l-7 7q25 191 36 262h142h153q0 -6 -0.5 -18t-1 -21.5t-1.5 -17.5q-39 0 -120 -0.5t-119 -1.5q-12 -67 -25 -151q19 2 71 2q100 0 154 -50.5t54 -123.5q0 -103 -75 -165q-71 -58 -189 -58q-68 0 -117 23q10 32 16 47q46 -18 104 -18q88 0 136 43q47 44 47 114
q0 61 -43 96t-125 35q-48 0 -90 -4z" />
    <glyph glyph-name="six.oldstyle" unicode="&#xf736;" horiz-adv-x="494" 
d="M126 316l7 -2q58 70 150 70q72 0 118 -46q22 -24 35.5 -60t13.5 -68q0 -107 -68 -171q-54 -49 -142 -49q-84 0 -137 56q-26 28 -42.5 74.5t-16.5 95.5q0 179 124 307q74 74 190 109q11 -17 21 -45q-94 -30 -154 -92q-71 -74 -99 -179zM250 38q49 0 79 30q41 41 41 123
q0 63 -32 103q-27 36 -78 36q-89 0 -136 -86v-34q0 -81 41 -132q32 -40 85 -40z" />
    <glyph glyph-name="seven.oldstyle" unicode="&#xf737;" horiz-adv-x="429" 
d="M320 367l-2 5q-298 -3 -304 -3q2 36 6 61h238h133q9 -23 16 -52q-25 -46 -53.5 -103t-61 -127t-52 -113t-53.5 -120t-39 -88q-41 11 -61 20q24 52 102 229t131 291z" />
    <glyph glyph-name="eight.oldstyle" unicode="&#xf738;" horiz-adv-x="501" 
d="M320 328v-5q68 -20 103.5 -62.5t35.5 -95.5q0 -81 -63 -130q-56 -45 -154 -45q-86 0 -141 39q-59 45 -59 116q0 55 36.5 101t102.5 69v5q-108 43 -108 137q0 55 45 100q54 52 146 52q84 0 131 -45q38 -36 38 -89q0 -99 -113 -147zM145 466q0 -45 29 -71t91 -49
q97 40 97 121q0 41 -23 66q-25 31 -84 31q-56 2 -87 -35q-23 -28 -23 -63zM384 152q0 54 -36 84.5t-115 56.5q-49 -16 -82 -55t-33 -87q0 -52 36 -83q36 -33 95 -33q63 0 99 33q36 31 36 84z" />
    <glyph glyph-name="nine.oldstyle" unicode="&#xf739;" horiz-adv-x="489" 
d="M364 122l-5 3q-54 -69 -144 -69q-73 0 -121 43q-55 53 -55 133q0 95 69 156q57 51 141 51q83 0 132 -52q63 -66 63 -186q0 -92 -35 -172t-90 -129q-79 -70 -186 -94q-12 22 -21 48q98 25 156 82q73 68 96 186zM236 391q-48 0 -78 -32q-41 -44 -41 -117q0 -63 35 -101
q29 -34 78 -34q35 0 72 21.5t61 59.5q1 10 1 28q0 83 -36 130q-35 45 -92 45z" />
    <glyph glyph-name="question.sc" unicode="&#xf73f;" horiz-adv-x="411" 
d="M370 385q0 -52 -34 -89.5t-102 -73.5q-20 -11 -20 -26q0 -19 15 -58q-20 -8 -53 -15q-12 14 -25.5 46.5t-13.5 52.5q84 46 116.5 77t32.5 78q0 39 -24.5 59t-65.5 20q-50 0 -78 -23q-4 -2 -5 -9l-15 -69q-20 1 -55 5q6 76 9 110q63 36 157 36q76 0 118.5 -33.5
t42.5 -87.5zM201 87q23 0 37 -14.5t14 -35.5q0 -18 -15 -32t-36 -14q-22 0 -37.5 13.5t-15.5 32.5t14.5 34.5t38.5 15.5z" />
    <glyph glyph-name="grave.sc" unicode="&#xf760;" horiz-adv-x="333" 
d="M103 692q30 -18 91.5 -58t67.5 -44q-9 -18 -21 -36q-20 10 -79.5 40.5t-90.5 45.5q4 7 32 52z" />
    <glyph glyph-name="a.sc" unicode="&#xf761;" horiz-adv-x="532" 
d="M2 43l44 3q5 2 6 4q185 441 190 453q16 1 61 1q32 -79 97.5 -246.5t82.5 -211.5l50 -2q0 -30 -1 -44q-12 0 -40 0.5t-41 0.5q-20 0 -59.5 -0.5t-57.5 -0.5q0 7 0.5 21.5t0.5 22.5l65 2q4 0 2 5q-3 8 -37 95q-1 4 -5 4l-203 -1q-12 -31 -39 -103l76 -2q0 -30 -1 -44
q-19 0 -59 0.5t-61 0.5q-12 0 -36.5 -0.5t-35.5 -0.5q0 28 1 43zM267 420h-6q-12 -32 -42.5 -108.5t-43.5 -112.5q-2 -5 1 -5h173q-9 25 -82 226z" />
    <glyph glyph-name="b.sc" unicode="&#xf762;" horiz-adv-x="517" 
d="M48 43l59 2q5 0 5 5v400l-64 2q0 9 0.5 23.5t0.5 20.5q50 1 171 1q115 0 158 -20q28 -13 46 -38.5t18 -54.5q0 -41 -27.5 -71.5t-72.5 -44.5v-5q57 -7 94 -40.5t37 -78.5q0 -65 -55 -104.5t-148 -39.5h-113h-109v43zM189 450l-1 -170q2 0 16.5 -0.5t24.5 -0.5
q58 0 97 23.5t39 65.5q0 40 -32 62.5t-96 22.5q-35 0 -48 -3zM188 234l-1 -162q0 -17 15.5 -22.5t55.5 -5.5q58 0 96 23t38 73q0 41 -36.5 68t-117.5 27q-41 0 -50 -1z" />
    <glyph glyph-name="c.sc" unicode="&#xf763;" horiz-adv-x="518" 
d="M407 345l-14 85q-2 11 -6 12q-24 12 -63 12q-79 0 -128 -48q-68 -65 -68 -168q0 -48 10.5 -81.5t38.5 -62.5q45 -50 134 -50q64 0 146 30q10 -39 11 -49q-102 -35 -172 -35q-102 0 -166 47q-39 28 -62.5 76.5t-23.5 106.5q0 143 107 226q75 60 192 60q73 0 110 -16
q6 -68 9 -139q-28 -3 -55 -6z" />
    <glyph glyph-name="d.sc" unicode="&#xf764;" horiz-adv-x="592" 
d="M47 43l58 2q4 0 4 5v399l-62 3v15.5v15.5v13q25 0 86.5 0.5t94.5 0.5q137 0 207 -40q51 -28 82 -79.5t31 -114.5q0 -143 -102 -215q-72 -48 -193 -48h-105h-102q0 28 1 43zM187 449l-2 -377q0 -17 11 -22.5t49 -4.5q103 0 157 45q28 25 45.5 66.5t17.5 83.5
q0 60 -16 98.5t-55 69.5q-55 44 -161 44q-19 0 -46 -3z" />
    <glyph glyph-name="e.sc" unicode="&#xf765;" horiz-adv-x="489" 
d="M47 44l58 2q3 0 3 3v400l-61 2v45h105h183h80q3 -44 7 -122q-15 -2 -51 -6l-13 64q-3 12 -20 14q-80 4 -129 4q-4 0 -12.5 -0.5t-10.5 -0.5l-1 -172q23 0 65 0.5t64 1.5q17 0 20 15l3 36h50q0 -13 -0.5 -39.5t-0.5 -38.5v-73q-32 -2 -51 -1l-2 36q-2 17 -21 17
q-37 1 -127 1l-1 -170q0 -10 7 -13t38 -3q101 0 127 6q10 1 15 15l26 67q30 -5 50 -9q-9 -51 -28 -125h-265h-108q0 28 1 44z" />
    </font>
</defs>
</svg>
